<?xml version="1.0" standalone="no"?>
<!DOCTYPE svg PUBLIC "-//W3C//DTD SVG 1.1//EN" "http://www.w3.org/Graphics/SVG/1.1/DTD/svg11.dtd" >
<svg xmlns="http://www.w3.org/2000/svg">
<metadata>
This is a custom SVG webfont generated by Font Squirrel.
Copyright   : Generated in 2010 by FontLab Studio Copyright info pending
Designer    : Campivisivi
Foundry     : Campivisivi
</metadata>
<defs>
<font id="TitilliumText22LLight" horiz-adv-x="1085" >
<font-face units-per-em="2048" ascent="1536" descent="-512" />
<missing-glyph horiz-adv-x="481" />
<glyph unicode=" "  horiz-adv-x="481" />
<glyph unicode="&#x09;" horiz-adv-x="481" />
<glyph unicode="&#xa0;" horiz-adv-x="481" />
<glyph unicode="!" d="M485 0v207h136v-207h-136zM487 1432h131l-4 -971h-122z" />
<glyph unicode="&#x22;" horiz-adv-x="612" d="M94 995v435h119l-2 -435h-117zM395 1430h121l-2 -435h-117z" />
<glyph unicode="#" d="M20 377v106h234v402h-234v106h234v375h115v-375h342v375h114v-375h234v-106h-234v-402h234v-106h-234v-377h-114v377h-342v-377h-115v377h-234zM369 483h342v402h-342v-402z" />
<glyph unicode="$" d="M113 1036q0 360 442 361q31 0 47 -2l31 227h92l-31 -233l256 -29l-10 -113q-139 18 -260 29l-68 -520q199 -43 284 -117t85 -242q0 -219 -109.5 -316t-322.5 -97h-35l-31 -236q-92 6 -92 14l29 228q-139 10 -291 33l12 110q158 -20 293 -29l72 551q-213 43 -303 119 t-90 262zM238 1040q0 -129 62 -181t222 -85l66 508h-33q-317 0 -317 -242zM528 100h19q158 0 233.5 69t75.5 224q0 111 -57.5 161t-200.5 83z" />
<glyph unicode="%" d="M45 1159q0 143 55.5 211t171.5 68q115 0 170.5 -69t55.5 -212q0 -287 -226 -287q-227 0 -227 289zM150 1159q0 -102 26.5 -150t96 -48t96 47t26.5 149q0 100 -26.5 145.5t-96 45.5t-96 -45.5t-26.5 -143.5zM297 39l438 1393l88 -35l-436 -1393zM618 289q0 143 55.5 210.5 t172.5 67.5q227 0 227 -280q0 -287 -227.5 -287t-227.5 289zM723 289q0 -100 26.5 -149.5t96 -49.5t96.5 48t27 148.5t-27 145.5t-96 45q-68 0 -95.5 -45t-27.5 -143z" />
<glyph unicode="&#x26;" horiz-adv-x="1433" d="M104 420q0 172 78 264t244 150q-66 76 -85 136t-19 156q0 139 89 222.5t251 83.5q172 0 255.5 -83t83.5 -231q0 -143 -73.5 -227t-247.5 -158l328 -325q41 135 59 284l121 -2q-29 -221 -86 -364l272 -265l-78 -86l-254 246q-82 -131 -192.5 -189.5t-267.5 -58.5 q-478 1 -478 447zM229 422q0 -332 357 -332q125 0 213 50t151 163l-442 445q-152 -45 -215.5 -118t-63.5 -208zM444 1116q0 -147 93 -239l63 -64q156 61 216.5 123.5t60.5 175.5q0 205 -215 205q-218 0 -218 -201z" />
<glyph unicode="'" horiz-adv-x="204" d="M35 1425h129l-10 -450h-115z" />
<glyph unicode="(" horiz-adv-x="532" d="M88 616.5q0 182.5 50 411.5t100 369l49 139h129q-23 -59 -54.5 -158.5t-86 -344.5t-54.5 -417q0 -342 178 -829l17 -43h-129q-23 51 -55.5 139t-88 319.5t-55.5 414z" />
<glyph unicode=")" horiz-adv-x="532" d="M88 -256q23 57 54.5 152.5t86 333t54.5 407.5q0 172 -49.5 396t-98.5 364l-47 139h129q23 -55 55.5 -147.5t88 -331t55.5 -420.5t-50.5 -405.5t-99.5 -354.5l-49 -133h-129z" />
<glyph unicode="*" d="M262 938l223 162l-219 162l53 73l220 -159l86 258l88 -29l-84 -262h270v-90h-274l84 -260l-86 -27l-86 262l-222 -162z" />
<glyph unicode="+" horiz-adv-x="901" d="M-68 477v115h453v452h119v-452h457v-115h-457v-457h-119v457h-453z" />
<glyph unicode="," horiz-adv-x="348" d="M70 -252l90 455h135l-109 -455h-116z" />
<glyph unicode="-" horiz-adv-x="901" d="M127 516v119h645v-119h-645z" />
<glyph unicode="." horiz-adv-x="507" d="M174 0v207h135v-207h-135z" />
<glyph unicode="/" d="M197 29l569 1417l117 -43l-572 -1417z" />
<glyph unicode="0" d="M55 651q0 209 32 351.5t97.5 222.5t150.5 113.5t206 33.5q250 0 367.5 -156.5t117.5 -564.5q0 -371 -122 -521t-361 -150q-244 0 -366 148t-122 523zM190 649q0 -217 43 -340t116 -166t194 -43q182 0 266 117t84 434q0 236 -39 369t-112.5 183t-200.5 50 q-186 0 -268.5 -128t-82.5 -476z" />
<glyph unicode="1" d="M152 1069l423 283h121v-1352h-125v1208l-360 -239z" />
<glyph unicode="2" d="M119 0v117l420 436q100 104 146 158.5t86 134.5t40 160q0 133 -77 189t-236 56q-152 0 -355 -49l-12 117q197 53 387 53q213 0 318.5 -84t105.5 -272q0 -141 -61.5 -245.5t-210.5 -254.5l-381 -395h692v-121h-862z" />
<glyph unicode="3" d="M102 27l17 116q219 -43 420 -43q315 2 315 275q0 260 -299 270h-274v117h272q92 0 178 69.5t86 184.5q0 129 -67.5 182t-227.5 53q-84 0 -179 -9t-146 -19l-54 -11l-16 113q205 47 399 47q229 0 325.5 -82t96.5 -264q0 -53 -14 -100t-33.5 -77t-48.5 -55.5t-49 -36.5 l-43 -24q-23 -12 -25 -12q125 -41 187.5 -111.5t62.5 -228.5q0 -203 -106.5 -302t-329.5 -99q-96 0 -208 12t-175 24z" />
<glyph unicode="4" d="M61 266v105l400 981h137l-391 -965h532v438h127v-438h181v-121h-181v-272h-127v272h-678z" />
<glyph unicode="5" d="M106 37l17 115q236 -49 420 -50q150 0 236.5 89.5t86.5 252.5q0 285 -309 285q-74 0 -156 -22.5t-127 -47.5l-45 -22l-106 18l39 697h778v-121h-661l-37 -471q166 88 325 88q430 0 430 -399q0 -229 -117.5 -347t-332.5 -118q-205 0 -441 53z" />
<glyph unicode="6" d="M74 684q0 688 518 688q76 0 167 -6t142 -14l53 -6l-12 -117q-178 25 -350 24q-186 0 -285.5 -128t-101.5 -371l53 20q55 20 145.5 43t161.5 23q451 0 451 -414q0 -213 -122 -329.5t-347 -116.5q-473 -1 -473 704zM203 639q4 -250 86 -395.5t258 -145.5q164 0 251 83 t87 245q0 150 -86 223.5t-242 73.5q-170 -6 -354 -84z" />
<glyph unicode="7" d="M115 1231v121h833v-181l-532 -1194l-119 39l520 1168v47h-702z" />
<glyph unicode="8" d="M45 344q0 150 61.5 225.5t188.5 139.5q-117 53 -172 123.5t-55 195.5q0 172 127 258t354 86t357 -87t130 -259q0 -127 -57 -197.5t-188 -119.5q131 -49 198.5 -126t67.5 -216q0 -387 -508 -387q-225 0 -364.5 84.5t-139.5 279.5zM182 362q0 -262 367 -262q375 0 375 275 q0 125 -68 180t-203 92h-225q-123 -33 -184.5 -98.5t-61.5 -186.5zM203 1016q0 -102 54 -160.5t171 -95.5h225q125 35 186.5 94t61.5 160q0 240 -352 239q-170 0 -258 -54t-88 -183z" />
<glyph unicode="9" d="M80 924q0 207 125 327.5t336 120.5q481 0 481 -704q0 -375 -133 -531.5t-393 -156.5l-363 28l12 115q178 -25 351 -25q393 0 395 496q-215 -80 -375 -80q-436 0 -436 410zM211 923.5q0 -151.5 79 -222t236 -70.5q66 0 158 20.5t152 40.5l57 19q-10 543 -352 542 q-152 0 -241 -89t-89 -240.5z" />
<glyph unicode=":" horiz-adv-x="333" d="M135 0v207h135v-207h-135zM135 676v209h135v-209h-135z" />
<glyph unicode=";" horiz-adv-x="385" d="M59 -248l95 461h137l-121 -461h-111zM143 676v209h136v-209h-136z" />
<glyph unicode="&#x3c;" d="M129 573v127l711 445v-131l-594 -373l594 -391v-135q-27 14 -177 111l-323 210z" />
<glyph unicode="=" d="M74 696v115h925v-115h-925zM76 326v114h925v-114h-925z" />
<glyph unicode="&#x3e;" d="M129 115v135l594 391l-594 373v131l711 -445v-127l-361 -234q-317 -208 -350 -224z" />
<glyph unicode="?" horiz-adv-x="790" d="M18 1399q231 55 342 55q213 0 317.5 -79t104.5 -265q0 -96 -41 -177t-98 -136.5t-115.5 -104.5t-99.5 -104.5t-41 -110.5v-78h-129v84q0 72 41 136.5t98 115.5l116 104q58 52 99 119.5t41 143.5q0 127 -70.5 178t-226.5 51q-43 0 -123.5 -13t-140.5 -28l-59 -12zM256 2 v207h135v-207h-135z" />
<glyph unicode="@" horiz-adv-x="2017" d="M113 535q0 498 229 720t690 222q459 0 666 -208t207 -644v-35q0 -164 -17.5 -277.5t-44 -178t-75 -99.5t-95.5 -45t-119 -10q-98 0 -149 22.5t-80 95.5q-221 -117 -371 -116q-55 0 -98 8t-94 38.5t-85 85t-56.5 151.5t-22.5 233q0 276 92 410t328 134q45 0 108.5 -13 t102.5 -25l41 -15v35h121v-410q0 -256 14 -361.5t44 -133t105 -27.5q61 0 95 12.5t68 59.5t47.5 150.5t13.5 275.5v37q0 389 -172 562t-574 173q-410 0 -602 -191.5t-192 -635.5q0 -465 185 -648.5t609 -183.5l293 21l6 -117q-201 -20 -299 -21q-238 0 -401.5 45 t-283.5 151.5t-177 292.5t-57 460zM721 492q0 -125 20.5 -208t59.5 -121t74.5 -51.5t82.5 -13.5q141 0 332 101q-20 109 -20 385v297q-135 47 -236 47q-182 0 -247.5 -102.5t-65.5 -333.5z" />
<glyph unicode="A" horiz-adv-x="1236" d="M63 0l410 1427h297l404 -1425h-127l-119 387h-623l-115 -389h-127zM336 510h563l-227 801h-107z" />
<glyph unicode="B" horiz-adv-x="1271" d="M195 0v1427h503q418 0 418 -350q0 -262 -186 -342q236 -76 235 -334q0 -217 -112.5 -309t-323.5 -92h-534zM319 117h406q150 0 230.5 65.5t80.5 223.5q0 262 -323 262h-394v-551zM319 782h394q143 0 208.5 71t65.5 212q0 131 -70.5 188.5t-222.5 57.5h-375v-529z" />
<glyph unicode="C" horiz-adv-x="1097" d="M109 709q0 188 21.5 315t76.5 228.5t158.5 148.5t259.5 47q84 0 181 -11.5t152 -21.5l54 -10l-8 -117q-217 39 -369 39q-125 0 -205 -38t-121 -124t-55 -189.5t-14 -266.5q0 -127 8 -215t32.5 -167t68.5 -125t116 -73t172 -27q59 0 151.5 9.5t153.5 19.5l62 8l6 -114 q-223 -45 -385 -45q-156 0 -259.5 47t-158.5 146t-76.5 225.5t-21.5 310.5z" />
<glyph unicode="D" horiz-adv-x="1323" d="M195 0v1427h514q508 0 508 -692q0 -735 -508 -735h-514zM319 119h390q106 0 183 52t118 144.5t58 194.5t17 225q0 573 -376 574h-390v-1190z" />
<glyph unicode="E" horiz-adv-x="1161" d="M195 0v1427h852v-118h-728v-523h605v-118h-605v-549h728v-119h-852z" />
<glyph unicode="F" horiz-adv-x="1140" d="M195 0v1427h854v-118h-730v-588h607v-119h-607v-602h-124z" />
<glyph unicode="G" horiz-adv-x="1251" d="M113 711q0 371 118.5 554t423.5 183q215 0 459 -53l-6 -115q-256 47 -442 47q-248 0 -335 -147.5t-87 -468.5q0 -319 87 -465t333 -146q57 0 136 8.5t134 16.5l55 8v471h-262v117h387v-690q-291 -51 -457 -51q-305 0 -424.5 181t-119.5 550z" />
<glyph unicode="H" horiz-adv-x="1411" d="M195 0v1427h124v-649h773v649h125v-1427h-125v659h-773v-659h-124z" />
<glyph unicode="I" horiz-adv-x="489" d="M182 0v1427h125v-1427h-125z" />
<glyph unicode="J" horiz-adv-x="626" d="M70 -31q59 0 88.5 2t63.5 10.5t48.5 25t27.5 47t16 74.5t3 112v1190h127q0 -217 1 -604.5t1 -606.5q0 -86 -9 -147.5t-31.5 -102.5t-48 -64.5t-75 -34.5t-93.5 -14t-119 -3v116z" />
<glyph unicode="K" horiz-adv-x="1220" d="M195 0v1427h124v-667l244 4l395 663h148l-430 -714l457 -713h-152l-414 643l-248 -4v-639h-124z" />
<glyph unicode="L" horiz-adv-x="1062" d="M195 0v1427h124v-1306h652v-121h-776z" />
<glyph unicode="M" horiz-adv-x="1740" d="M195 0v1427h229l446 -1243l449 1243h227v-1427h-125v1286h-28l-451 -1239h-147l-447 1239h-29v-1286h-124z" />
<glyph unicode="N" horiz-adv-x="1413" d="M195 0v1427h241l608 -1286h50v1286h127v-1427h-240l-614 1286h-48v-1286h-124z" />
<glyph unicode="O" horiz-adv-x="1337" d="M113 707q0 375 120.5 558t434 183t435.5 -182.5t122 -558.5q0 -385 -120 -556t-437 -171q-315 0 -435 175t-120 552zM244 707q0 -160 17.5 -265.5t62.5 -186.5t129 -118t215 -37q254 0 340 138.5t86 468.5q0 319 -90.5 469.5t-335.5 150.5q-248 0 -336 -149t-88 -471z " />
<glyph unicode="P" horiz-adv-x="1247" d="M195 0v1427h518q227 0 334.5 -108.5t107.5 -337.5q0 -485 -442 -485h-394v-496h-124zM319 616h394q313 0 313 365q0 170 -74.5 249t-238.5 79h-394v-693z" />
<glyph unicode="Q" horiz-adv-x="1337" d="M113 707q0 375 120.5 558t434 183t435.5 -182.5t122 -558.5q0 -268 -53.5 -427t-186.5 -233l174 -283l-119 -57l-180 295q-86 -23 -192 -22q-315 0 -435 175t-120 552zM244 707q0 -160 17.5 -265.5t62.5 -186.5t129 -118t215 -37q254 0 340 138.5t86 468.5 q0 319 -90.5 469.5t-335.5 150.5q-248 0 -336 -149t-88 -471z" />
<glyph unicode="R" horiz-adv-x="1282" d="M195 0v1427h520q225 0 333.5 -101t108.5 -322q0 -344 -274 -416l293 -588h-142l-280 559h-435v-559h-124zM319 678h396q170 0 240.5 84t70.5 241.5t-76 231.5t-235 74h-396v-631z" />
<glyph unicode="S" horiz-adv-x="1093" d="M96 1077q0 375 459 375l412 -39l-11 -117q-283 35 -401 35q-330 0 -330 -250q0 -145 75 -197.5t286 -92.5q225 -45 318 -121t93 -256q0 -227 -113.5 -328.5t-334.5 -101.5l-436 39l12 116q276 -35 422 -35q164 0 242.5 71t78.5 233q0 127 -70.5 179t-258.5 87 q-121 23 -193 46t-134 67t-89 115t-27 175z" />
<glyph unicode="T" horiz-adv-x="1013" d="M-6 1309v118h1024v-118h-447v-1309h-125v1309h-452z" />
<glyph unicode="U" horiz-adv-x="1312" d="M168 418v1009h127v-1009q0 -315 354 -316q180 0 274.5 73t94.5 243v1009h125v-1009q0 -231 -124 -333.5t-370 -102.5q-238 0 -359.5 103.5t-121.5 332.5z" />
<glyph unicode="V" horiz-adv-x="1202" d="M63 1427h130l356 -1308h113l348 1308h129l-379 -1427h-309z" />
<glyph unicode="W" horiz-adv-x="1820" d="M82 1427h127l272 -1302h68l291 1288h141l299 -1288h66l266 1302h127l-299 -1427h-252l-279 1237l-268 -1237h-252z" />
<glyph unicode="X" horiz-adv-x="1189" d="M70 0l442 709l-442 718h143l383 -622l381 622h143l-436 -718l436 -709h-143l-379 616l-385 -616h-143z" />
<glyph unicode="Y" horiz-adv-x="1122" d="M43 1427h141l379 -673l373 673h141l-450 -815v-612h-127v612z" />
<glyph unicode="Z" horiz-adv-x="1167" d="M123 -2v174l774 1092v45h-774v118h921v-174l-774 -1093v-41h774v-121h-921z" />
<glyph unicode="[" horiz-adv-x="614" d="M90 -252v1786h408v-117h-285v-1552h285v-117h-408z" />
<glyph unicode="\" horiz-adv-x="1093" d="M164 1395l131 55l625 -1415l-129 -53z" />
<glyph unicode="]" horiz-adv-x="614" d="M90 -135h285v1552h-285v117h408v-1786h-408v117z" />
<glyph unicode="^" d="M115 672l354 680h129l371 -680h-135l-299 557l-287 -557h-133z" />
<glyph unicode="_" horiz-adv-x="1064" d="M55 -45h877v-115h-877v115z" />
<glyph unicode="`" horiz-adv-x="466" d="M6 1413l45 109l426 -195l-41 -96z" />
<glyph unicode="a" horiz-adv-x="1064" d="M104 289q0 141 73 212.5t229 86.5l348 35v92q0 211 -197 211l-389 -31l-8 109q242 39 401.5 38.5t236 -80t76.5 -247.5v-535q8 -78 134 -92l-7 -106q-162 0 -231 77q-184 -80 -393 -79q-129 0 -201 79.5t-72 229.5zM231 291q0 -98 42 -150.5t118 -52.5q78 0 168 17.5 t141 33.5l54 19v362l-334 -31q-189 -16 -189 -198z" />
<glyph unicode="b" horiz-adv-x="1105" d="M188 0v1479h123v-508q160 72 320 71q205 0 284.5 -116.5t79.5 -395.5q0 -305 -101 -427.5t-376 -122.5zM311 102q143 -12 205 -12q215 0 283.5 98.5t68.5 339.5q0 219 -51 310.5t-194 91.5q-154 0 -312 -66v-762z" />
<glyph unicode="c" horiz-adv-x="894" d="M111 530q0 281 96 396.5t325 115.5q39 0 106 -6t114 -12l47 -6l-4 -109q-164 18 -242 19q-182 0 -249.5 -87t-67.5 -311q0 -248 62 -342t255 -94l244 19l6 -109q-184 -25 -273 -24q-244 0 -331.5 120.5t-87.5 429.5z" />
<glyph unicode="d" horiz-adv-x="1107" d="M111 504q0 276 97 407t331 131q102 0 258 -24v416h123v-1434h-123v74q-162 -94 -328 -94q-59 0 -104.5 9t-95.5 41.5t-82.5 88t-54 154t-21.5 231.5zM233 500q0 -129 20.5 -214t59.5 -125t78 -54.5t90 -14.5q68 0 147 22.5t124 45.5l45 20v729q-225 23 -254 23 q-174 0 -242 -104.5t-68 -327.5z" />
<glyph unicode="e" horiz-adv-x="1038" d="M111 508q0 535 421 534q203 0 303.5 -115.5t100.5 -367.5l-4 -98h-696q0 -188 64.5 -278.5t219.5 -90.5q66 0 160 5t156 9l59 5l4 -103q-231 -29 -391 -28q-221 2 -309 131t-88 397zM236 563h577q0 201 -66.5 286t-214.5 85q-296 0 -296 -371z" />
<glyph unicode="f" horiz-adv-x="679" d="M61 911v113h136v104q0 217 59 294t209 77l201 -12l-2 -103q-121 4 -181 5q-94 0 -130 -53.5t-36 -209.5v-102h312v-113h-312v-911h-120v911h-136z" />
<glyph unicode="g" horiz-adv-x="1048" d="M102 -170q0 86 37 138t129 120q-51 33 -51 139l66 160q-166 70 -166 309q0 348 368 348l215 -26l295 6v-109h-198q70 -70 69 -219q0 -190 -92 -266t-295 -76q-59 0 -104 8q-41 -100 -41 -126q0 -68 40 -84.5t220 -16.5q217 0 301 -58.5t84 -238.5q0 -170 -111.5 -248.5 t-337.5 -78.5q-246 0 -337 68.5t-91 250.5zM225 -162q0 -123 61.5 -170t245.5 -47q168 0 244 50t76 163q0 123 -55.5 158t-210.5 35l-232 8q-76 -53 -102.5 -93.5t-26.5 -103.5zM240 696q0 -125 53 -180t186 -55q141 0 201.5 52t60.5 183q0 143 -55 191.5t-203 48.5 q-127 0 -185 -53.5t-58 -186.5z" />
<glyph unicode="h" horiz-adv-x="1157" d="M188 0v1509h123v-538q174 72 332 71q205 0 273.5 -108.5t68.5 -401.5v-532h-123v530q0 233 -44 316.5t-189 83.5q-154 0 -318 -68v-862h-123z" />
<glyph unicode="i" horiz-adv-x="466" d="M172 0v1024h123v-1024h-123zM172 1280v154h123v-154h-123z" />
<glyph unicode="j" horiz-adv-x="495" d="M-63 -358q166 94 215 161.5t49 208.5v1012h123v-1014q0 -182 -67 -276t-269 -197zM201 1284v154h123v-154h-123z" />
<glyph unicode="k" horiz-adv-x="1007" d="M188 0v1479h123v-873l170 6l332 412h139l-360 -469l364 -555h-141l-332 492l-172 -7v-485h-123z" />
<glyph unicode="l" horiz-adv-x="483" d="M180 0v1479h123v-1479h-123z" />
<glyph unicode="m" horiz-adv-x="1777" d="M188 0v1024h123v-74q137 82 287 88q29 2 53 2q36 0 62 -4q117 -14 172 -88q252 94 377 94q205 0 273.5 -107.5t68.5 -402.5v-532h-123v502q0 256 -42 342t-192 86q-68 0 -146.5 -21.5t-116.5 -39t-48 -23.5q29 -84 29 -314v-532h-121v528q0 240 -44 321t-192 81 q-150 0 -297 -86v-844h-123z" />
<glyph unicode="n" horiz-adv-x="1167" d="M188 0v1024h123v-74q176 92 332 92q205 0 273.5 -108.5t68.5 -401.5v-532h-121v530q0 233 -44 316.5t-191 83.5q-152 0 -318 -86v-844h-123z" />
<glyph unicode="o" horiz-adv-x="1079" d="M111 528q0 274 98 394t334 120q223 0 324.5 -123.5t101.5 -392.5q0 -291 -90.5 -418.5t-335.5 -127.5q-250 0 -341 123.5t-91 424.5zM236 528q0 -248 59 -343t248 -95q186 0 242.5 98.5t56.5 337.5q0 217 -71 311.5t-228 94.5q-176 0 -241.5 -87.5t-65.5 -316.5z" />
<glyph unicode="p" horiz-adv-x="1107" d="M188 -461v1485h123v-78q160 96 324 96q193 0 278.5 -123.5t85.5 -394.5q0 -295 -102 -419.5t-340 -124.5q-133 0 -246 26v-467h-123zM311 115q139 -25 240 -25q178 0 249.5 99.5t71.5 338.5q0 215 -63.5 309.5t-185.5 94.5q-66 0 -144 -23.5t-123 -46.5l-45 -22v-725z " />
<glyph unicode="q" horiz-adv-x="1099" d="M111 492q0 287 103 418.5t364 131.5l333 -18v-1485h-123v506q-125 -66 -284 -65q-213 0 -303 127t-90 385zM236 496q0 -205 60 -305.5t208 -100.5q152 0 284 72v760q-143 10 -210 10q-197 0 -269.5 -102.5t-72.5 -333.5z" />
<glyph unicode="r" horiz-adv-x="727" d="M188 0v1024h123v-145q18 14 52 36.5t132.5 67.5t190.5 61v-124q-86 -16 -180 -55.5t-146 -69.5l-49 -31v-764h-123z" />
<glyph unicode="s" horiz-adv-x="995" d="M117 754q0 154 103.5 221t256.5 67q70 0 161 -9t148 -17l56 -8l-4 -109q-221 33 -355 33q-242 0 -241 -174q0 -80 52 -114t214 -58q211 -35 290 -91.5t79 -197.5q0 -172 -100.5 -244.5t-295.5 -72.5l-352 36l8 109q229 -35 334 -35q143 0 212 43t69 158q0 88 -54.5 121.5 t-226.5 60.5q-199 31 -276.5 86.5t-77.5 194.5z" />
<glyph unicode="t" horiz-adv-x="749" d="M61 911v113h152v322h123v-322h342v-113h-342v-497q0 -199 27.5 -260.5t134.5 -61.5l190 14l6 -108q-135 -20 -207 -21q-154 0 -214 77t-60 294v563h-152z" />
<glyph unicode="u" horiz-adv-x="1142" d="M174 489v535h121v-530q0 -240 44 -322t191 -82q68 0 144 21.5t117 44.5l40 20v848h121v-1024h-121v72q-160 -92 -315 -92q-209 0 -275.5 106t-66.5 403z" />
<glyph unicode="v" horiz-adv-x="985" d="M57 1024h129l267 -918h79l269 918h127l-303 -1024h-269z" />
<glyph unicode="w" horiz-adv-x="1552" d="M63 1024h125l228 -913h28l267 893h131l264 -893h31l227 913h125l-258 -1024h-215l-242 844l-242 -844h-213z" />
<glyph unicode="x" horiz-adv-x="940" d="M63 0l330 512l-330 512h136l270 -422l272 422h136l-330 -512l330 -512h-138l-270 420l-270 -420h-136z" />
<glyph unicode="y" horiz-adv-x="985" d="M57 1024h125l273 -907h73l275 907h125l-443 -1485h-123l136 461h-140z" />
<glyph unicode="z" horiz-adv-x="983" d="M111 0v111l612 802h-612v111h759v-111l-610 -802h610v-111h-759z" />
<glyph unicode="{" horiz-adv-x="610" d="M12 584v106q115 29 161 82t46 148q0 27 -7 124t-7 138q0 186 88 269t293 91l4 -117q-150 -8 -203 -65t-53 -184q0 -35 7 -127.5t7 -120.5q0 -129 -45 -190.5t-160 -98.5q113 -37 159 -100.5t46 -190.5q0 -12 -7 -103t-7 -136q0 -125 54 -184.5t202 -67.5l-4 -117 q-203 8 -292 92t-89 268q0 43 7 136.5t7 115.5q0 92 -46 145.5t-161 86.5z" />
<glyph unicode="|" d="M469 -209v1667h125v-1667h-125z" />
<glyph unicode="}" horiz-adv-x="610" d="M12 -143q147 8 201.5 67.5t54.5 184.5q0 43 -7 124.5t-7 114.5q0 127 46 190.5t159 100.5q-115 37 -160 98.5t-45 190.5q0 29 7 121t7 127q0 127 -53 184t-203 65l2 117q205 -8 293 -91t88 -269q0 -41 -7 -138.5t-7 -123.5q0 -94 46 -147.5t163 -82.5v-106 q-115 -33 -162 -86.5t-47 -145.5q0 -23 7 -116t7 -136q0 -184 -89 -268t-292 -92z" />
<glyph unicode="~" d="M133 662q12 12 34.5 30.5t81 48t107.5 29.5q66 0 203 -52t180 -52q78 0 197 100l14 -121q-12 -12 -32.5 -29.5t-77 -47t-103.5 -29.5q-63 0 -202.5 53t-182.5 53q-80 0 -202 -102z" />
<glyph unicode="&#xa1;" d="M487 815v207h136v-207h-136zM489 -410l5 971h122l5 -971h-132z" />
<glyph unicode="&#xa2;" horiz-adv-x="894" d="M96 508q0 221 91.5 326.5t269.5 113.5v252h110v-256l219 -20l-6 -113q-195 16 -272 16q-156 0 -218.5 -71.5t-62.5 -247.5q0 -180 61.5 -244.5t235.5 -64.5l260 14l4 -113q-133 -16 -219 -20v-250h-110v248q-193 8 -278 101t-85 329z" />
<glyph unicode="&#xa3;" d="M176 0v111h180v626h-139v109h139v131q0 244 71 330t232 86q39 0 102.5 -6.5t106.5 -14.5l43 -6v-106q-172 23 -249 22q-109 0 -147 -63.5t-38 -251.5v-121h359v-109h-359v-626h332l160 32l22 -106l-168 -37h-647z" />
<glyph unicode="&#xa4;" horiz-adv-x="1083" d="M102 164l146 141q-68 94 -68 210t66 210l-144 143l88 88l142 -145q94 66 209.5 66t210.5 -66l143 145l88 -88l-145 -143q66 -94 65.5 -210t-65.5 -210l145 -141l-88 -88l-143 143q-94 -66 -210 -65.5t-210 67.5l-142 -145zM299 516q0 -102 70 -174q72 -70 173 -70t173 70 q72 72 71.5 174t-72 172t-173 70t-172.5 -70q-70 -70 -70 -172z" />
<glyph unicode="&#xa5;" horiz-adv-x="1105" d="M35 1352h141l379 -584l373 584h143l-366 -586h303v-109h-369l-21 -41v-153h392v-111h-392v-352h-126v352h-394v111h394v153l-19 41h-377v109h310z" />
<glyph unicode="&#xa6;" d="M465 -211v762h123v-762h-123zM465 772v764h123v-764h-123z" />
<glyph unicode="&#xa7;" d="M147 543q0 82 45.5 157.5t71.5 96.5q-90 68 -90 229q0 158 98.5 235.5t280.5 77.5l330 -30l-6 -105q-219 27 -318 27q-135 0 -199.5 -48t-64.5 -153q0 -113 63.5 -153.5t233.5 -69.5q178 -33 255 -91.5t77 -201.5q0 -55 -19.5 -118.5t-37 -97.5t-29.5 -50q76 -59 75 -199 q0 -336 -376 -336q-57 0 -146.5 8.5t-148.5 16.5l-60 8l13 104q223 -31 335 -30q264 0 265 223q0 102 -62.5 136t-234.5 63q-184 31 -267.5 94.5t-83.5 206.5zM270 559q0 -96 59.5 -140t198.5 -67q147 -25 217 -55l17 33q12 25 25.5 76t13.5 94q0 100 -57.5 139t-196.5 63 q-150 27 -199 50q-78 -117 -78 -193z" />
<glyph unicode="&#xa8;" horiz-adv-x="466" d="M-16 1290v162h120v-162h-120zM387 1290v162h119v-162h-119z" />
<glyph unicode="&#xa9;" d="M20 889q0 229 149.5 387t373.5 158q225 0 374.5 -159t149.5 -386q0 -229 -149.5 -386t-376.5 -157q-223 0 -372 158t-149 385zM100 889q0 -195 126 -328t316.5 -133t316.5 133t126 328q0 193 -127 328t-315 135q-190 0 -316.5 -135t-126.5 -328zM309 889 q0 156 51.5 234.5t184.5 78.5l151 -12l-2 -105q-76 14 -149 15q-82 0 -107.5 -50.5t-25.5 -160.5q0 -104 28.5 -157.5t104.5 -53.5l149 14l2 -102q-80 -16 -151 -17q-131 0 -183.5 79t-52.5 237z" />
<glyph unicode="&#xaa;" horiz-adv-x="1060" d="M283 954q0 143 153 156l209 14v47q0 66 -24.5 89.5t-81.5 23.5l-213 -14l-4 63q141 16 217 17q88 0 129 -42t41 -139v-274q12 -41 75 -47l-4 -57q-66 2 -110 45q-129 -45 -244 -45q-63 0 -103 44.5t-40 118.5zM350 950q0 -94 82 -94q41 0 94.5 8t85.5 17l33 10v174 l-199 -12q-51 -4 -73.5 -28t-22.5 -75z" />
<glyph unicode="&#xab;" horiz-adv-x="1157" d="M184 459v104l371 283v-129l-264 -203l264 -223v-131zM647 459v104l371 283v-129l-264 -203l264 -223v-131z" />
<glyph unicode="&#xac;" d="M131 580v118h827v-456h-120v338h-707z" />
<glyph unicode="&#xae;" d="M10 889q0 231 149.5 392t383 161t385 -161t151.5 -392.5t-152.5 -392t-383.5 -160.5q-233 0 -383 160t-150 393zM90 889q0 -197 130 -335t322.5 -138t322.5 138t130 335q0 199 -130 336t-322.5 137t-322.5 -137t-130 -336zM322 565v645h204q127 0 183.5 -44t56.5 -146 q0 -154 -111 -191l123 -264h-106l-117 252h-135v-252h-98zM420 903h137q59 0 86 24.5t27 88.5q0 59 -34 83.5t-108 24.5h-108v-221z" />
<glyph unicode="&#xaf;" horiz-adv-x="466" d="M-43 1305v108h578v-108h-578z" />
<glyph unicode="&#xb0;" d="M213 1155q0 127 80 206t207 79t205.5 -79t78.5 -206t-78.5 -206t-205.5 -79t-207 79t-80 206zM305 1155q0 -90 53.5 -143.5t141.5 -53.5q90 0 144 54.5t54 142.5q0 90 -54 144.5t-144 54.5q-88 0 -141.5 -54.5t-53.5 -144.5z" />
<glyph unicode="&#xb1;" d="M92 659v115h393v273h119v-273h404v-115h-404v-276h-119v276h-393zM94 137v115h914v-115h-914z" />
<glyph unicode="&#xb2;" horiz-adv-x="542" d="M49 979v98l189 191q55 55 80.5 94t25.5 86q0 84 -106 84l-177 -21l-6 101q117 25 203 24q199 0 199 -180q0 -68 -31 -121t-98 -116l-135 -140h274v-100h-418z" />
<glyph unicode="&#xb3;" horiz-adv-x="542" d="M55 981l6 96q115 -16 209 -16q111 0 111 96q0 100 -105 100h-133v97h131q33 0 62 30.5t29 73.5q0 78 -105 78l-190 -16l-7 96q115 20 205 20q209 0 209 -168q0 -102 -88 -155q55 -18 81 -49t26 -109q0 -197 -215 -197z" />
<glyph unicode="&#xb4;" horiz-adv-x="548" d="M61 1327l426 195l48 -113l-431 -182z" />
<glyph unicode="&#xb5;" d="M166 -498v1522h123v-545q0 -231 44 -310t189 -79q68 0 143.5 21.5t116.5 44.5l41 20v848h123v-1024h-123v72q-160 -92 -315 -92q-158 0 -219 79v-557h-123z" />
<glyph unicode="&#x3bc;" d="M166 -498v1522h123v-545q0 -231 44 -310t189 -79q68 0 143.5 21.5t116.5 44.5l41 20v848h123v-1024h-123v72q-160 -92 -315 -92q-158 0 -219 79v-557h-123z" />
<glyph unicode="&#xb6;" d="M16 1061q0 164 108.5 268.5t272.5 104.5h674v-105h-168v-1329h-112v1329h-267v-1329h-112v694h-15q-164 0 -272.5 102.5t-108.5 264.5z" />
<glyph unicode="&#xb7;" horiz-adv-x="507" d="M174 520v207h135v-207h-135z" />
<glyph unicode="&#xb8;" horiz-adv-x="1705" d="M795 -420l4 82q84 -6 145 -6q92 0 92 84q0 76 -92 76h-96v186h78v-108q119 0 171 -32t52 -122q0 -172 -182 -172z" />
<glyph unicode="&#xb9;" horiz-adv-x="542" d="M68 1477l206 141h105v-639h-111v518l-149 -102z" />
<glyph unicode="&#xba;" horiz-adv-x="1077" d="M295 1073q0 276 235 277q119 0 175.5 -66.5t56.5 -210.5q0 -283 -232 -282q-235 -1 -235 282zM365 1073q0 -117 38.5 -167t126.5 -50t125 50t37 167t-37 164t-125 47t-126.5 -48t-38.5 -163z" />
<glyph unicode="&#xbb;" horiz-adv-x="1157" d="M139 160v131l262 223l-262 203v129l371 -283v-104zM602 160v131l262 223l-262 203v129l371 -283v-104z" />
<glyph unicode="&#xbf;" horiz-adv-x="790" d="M18 -86q0 96 41 177t99.5 136.5t116 104.5t98.5 104.5t41 110.5v78h129v-84q0 -72 -41 -136.5t-100 -115.5l-115 -104q-57 -52 -98.5 -119.5t-41.5 -143.5q0 -127 71 -178t226 -51q43 0 124 13t141 28l59 12l14 -121q-231 -55 -342 -55q-213 0 -317.5 79t-104.5 265z M410 815v207h135v-207h-135z" />
<glyph unicode="&#xc0;" horiz-adv-x="1236" d="M66 0l409 1427h297l404 -1425h-127l-119 387h-623l-114 -389h-127zM338 510h563l-227 801h-107zM352 1792l47 113l426 -195l-43 -98z" />
<glyph unicode="&#xc1;" horiz-adv-x="1236" d="M66 0l409 1427h297l404 -1425h-127l-119 387h-623l-114 -389h-127zM338 510h563l-227 801h-107zM397 1737l426 194l47 -112l-430 -183z" />
<glyph unicode="&#xc2;" horiz-adv-x="1236" d="M66 0l409 1427h297l404 -1425h-127l-119 387h-623l-114 -389h-127zM313 1628l254 291h99l254 -291h-140l-162 184l-165 -184h-140zM338 510h563l-227 801h-107z" />
<glyph unicode="&#xc3;" horiz-adv-x="1236" d="M66 0l409 1427h297l404 -1425h-127l-119 387h-623l-114 -389h-127zM291 1788q102 104 180 104q49 0 160.5 -51t140.5 -51q18 0 52 20.5t61 40.5l24 21l29 -96q-92 -98 -166 -99q-47 0 -159.5 52.5t-143.5 52.5q-20 0 -57 -22.5t-64 -45.5l-26 -22zM338 510h563l-227 801 h-107z" />
<glyph unicode="&#xc4;" horiz-adv-x="1236" d="M66 0l409 1427h297l404 -1425h-127l-119 387h-623l-114 -389h-127zM338 510h563l-227 801h-107zM387 1700v162h119v-162h-119zM788 1700v162h119v-162h-119z" />
<glyph unicode="&#xc5;" horiz-adv-x="1236" d="M66 0l395 1378q-68 57 -68 158q0 94 62.5 149.5t163 55.5t163 -55.5t62.5 -149.5t-62 -150l394 -1384h-127l-119 387h-623l-114 -389h-127zM338 510h563l-227 801h-107zM496 1536q0 -92 86 -109h73q86 16 86 109q0 53 -32.5 82t-90 29t-90 -29t-32.5 -82z" />
<glyph unicode="&#xc6;" horiz-adv-x="1839" d="M78 0l479 1427h1174v-118h-727v-516h604v-119h-604v-555h727v-119h-852v389h-535l-133 -389h-133zM381 510h498v799h-228z" />
<glyph unicode="&#xc7;" horiz-adv-x="1099" d="M109 709q0 188 21.5 315t76.5 228.5t158.5 148.5t259.5 47q84 0 181 -11.5t152 -21.5l54 -10l-8 -117q-217 39 -369 39q-125 0 -205 -38t-121 -124t-55 -189.5t-14 -266.5q0 -127 8 -215t32.5 -167t68.5 -125t116 -73t172 -27q59 0 151.5 9.5t153.5 19.5l62 8l6 -114 q-205 -41 -365 -45v-86q119 0 171 -32t52 -122q0 -172 -182 -172l-172 12l4 82q84 -6 146 -6q92 0 92 84q0 76 -92 76h-97v166q-266 16 -362 192.5t-96 534.5z" />
<glyph unicode="&#xc8;" horiz-adv-x="1161" d="M195 0v1427h852v-118h-728v-523h605v-118h-605v-549h728v-119h-852zM377 1792l47 113l426 -195l-43 -98z" />
<glyph unicode="&#xc9;" horiz-adv-x="1171" d="M197 0v1427h852v-118h-727v-523h604v-118h-604v-549h727v-119h-852zM418 1737l426 194l47 -112l-430 -183z" />
<glyph unicode="&#xca;" horiz-adv-x="1171" d="M197 0v1427h852v-118h-727v-523h604v-118h-604v-549h727v-119h-852zM328 1628l254 291h98l254 -291h-139l-162 184l-166 -184h-139z" />
<glyph unicode="&#xcb;" horiz-adv-x="1171" d="M197 0v1427h852v-118h-727v-523h604v-118h-604v-549h727v-119h-852zM369 1700v162h118v-162h-118zM770 1700v162h121v-162h-121z" />
<glyph unicode="&#xcc;" horiz-adv-x="489" d="M-49 1792l47 113l426 -195l-43 -98zM182 0v1427h125v-1427h-125z" />
<glyph unicode="&#xcd;" horiz-adv-x="489" d="M29 1716l426 195l47 -113l-430 -182zM182 0v1427h125v-1427h-125z" />
<glyph unicode="&#xce;" horiz-adv-x="489" d="M-82 1645l275 268h108l272 -268h-145l-180 170l-180 -170h-150zM182 0v1427h125v-1427h-125z" />
<glyph unicode="&#xcf;" horiz-adv-x="489" d="M-20 1694v161h120v-161h-120zM182 0v1427h125v-1427h-125zM395 1694v161h119v-161h-119z" />
<glyph unicode="&#xd0;" horiz-adv-x="1323" d="M47 641v119h148v667h514q508 0 508 -692q0 -735 -508 -735h-514v641h-148zM319 119h390q106 0 183 52t118 144.5t58 194.5t17 225q0 573 -376 574h-390v-549h322v-119h-322v-522z" />
<glyph unicode="&#xd1;" horiz-adv-x="1406" d="M188 0v1427h242l608 -1286h49v1286h127v-1427h-237l-615 1286h-49v-1286h-125zM373 1788q102 104 180 104q49 0 160.5 -51t140.5 -51q18 0 52 20.5t61 40.5l24 21l29 -96q-92 -98 -166 -99q-47 0 -159.5 52.5t-143.5 52.5q-20 0 -57 -22.5t-64 -45.5l-27 -22z" />
<glyph unicode="&#xd2;" horiz-adv-x="1343" d="M115 707q0 375 120.5 558t434 183t435.5 -182.5t122 -558.5q0 -385 -120 -556t-437 -171q-315 0 -435 175t-120 552zM246 707q0 -160 17.5 -265.5t62.5 -186.5t129 -118t215 -37q254 0 340 138.5t86 468.5q0 319 -90.5 469.5t-335.5 150.5q-248 0 -336 -149t-88 -471z M422 1792l47 113l426 -195l-43 -98z" />
<glyph unicode="&#xd3;" horiz-adv-x="1343" d="M115 707q0 375 120.5 558t434 183t435.5 -182.5t122 -558.5q0 -385 -120 -556t-437 -171q-315 0 -435 175t-120 552zM246 707q0 -160 17.5 -265.5t62.5 -186.5t129 -118t215 -37q254 0 340 138.5t86 468.5q0 319 -90.5 469.5t-335.5 150.5q-248 0 -336 -149t-88 -471z M428 1737l426 194l47 -112l-430 -183z" />
<glyph unicode="&#xd4;" horiz-adv-x="1343" d="M115 707q0 375 120.5 558t434 183t435.5 -182.5t122 -558.5q0 -385 -120 -556t-437 -171q-315 0 -435 175t-120 552zM246 707q0 -160 17.5 -265.5t62.5 -186.5t129 -118t215 -37q254 0 340 138.5t86 468.5q0 319 -90.5 469.5t-335.5 150.5q-248 0 -336 -149t-88 -471z M367 1628l254 291h98l254 -291h-139l-162 184l-166 -184h-139z" />
<glyph unicode="&#xd5;" horiz-adv-x="1343" d="M115 707q0 375 121.5 558t435 183t434.5 -181.5t121 -559.5q0 -385 -119 -556t-436.5 -171t-437 175t-119.5 552zM246 706.5q0 -321.5 87 -464t339 -142.5q254 0 339 138.5t85 468.5q0 319 -89 469.5t-335 150.5q-248 0 -337 -149.5t-89 -471zM344 1788q102 104 180 104 q49 0 161 -51t140 -51q18 0 52 20.5t61 40.5l25 21l28 -96q-92 -98 -166 -99q-47 0 -159.5 52.5t-143.5 52.5q-20 0 -57 -22.5t-64 -45.5l-26 -22z" />
<glyph unicode="&#xd6;" horiz-adv-x="1343" d="M115 707q0 375 121.5 558t435 183t434.5 -181.5t121 -559.5q0 -385 -119 -556t-436.5 -171t-437 175t-119.5 552zM246 706.5q0 -321.5 87 -464t339 -142.5q254 0 339 138.5t85 468.5q0 319 -89 469.5t-335 150.5q-248 0 -337 -149.5t-89 -471zM403 1700v162h121v-162 h-121zM807 1700v162h119v-162h-119z" />
<glyph unicode="&#xd7;" horiz-adv-x="1550" d="M383 123l397 414l-393 407l86 82l389 -408l391 408l86 -82l-395 -407l399 -414l-86 -80l-395 410l-395 -410z" />
<glyph unicode="&#xd8;" horiz-adv-x="1337" d="M113 707q0 375 120.5 558t434.5 183q154 0 264 -47l108 231l115 -45l-119 -250q188 -162 189 -630q0 -385 -120 -556t-437 -171q-135 0 -250 36l-119 -254l-113 50l123 264q-109 82 -152.5 235.5t-43.5 395.5zM244 707q0 -385 123 -510l512 1089q-88 41 -211 41 q-248 0 -336 -149t-88 -471zM471 131q80 -31 197 -31q254 0 340 138.5t86 468.5q0 369 -117 503z" />
<glyph unicode="&#xd9;" horiz-adv-x="1312" d="M168 418v1009h127v-1009q0 -315 354 -316q180 0 274.5 73t94.5 243v1009h125v-1009q0 -231 -124 -333.5t-370 -102.5q-238 0 -359.5 103.5t-121.5 332.5zM328 1792l47 113l426 -195l-43 -98z" />
<glyph unicode="&#xda;" horiz-adv-x="1314" d="M170 418v1009h127v-1009q0 -315 354 -316q180 0 274.5 73t94.5 243v1009h125v-1009q0 -231 -124 -333.5t-370 -102.5q-238 0 -359.5 103.5t-121.5 332.5zM416 1737l426 194l47 -112l-430 -183z" />
<glyph unicode="&#xdb;" horiz-adv-x="1314" d="M170 418v1009h127v-1009q0 -315 354 -316q180 0 274.5 73t94.5 243v1009h125v-1009q0 -231 -124 -333.5t-370 -102.5q-238 0 -359.5 103.5t-121.5 332.5zM356 1628l254 291h99l254 -291h-140l-161 184l-166 -184h-140z" />
<glyph unicode="&#xdc;" horiz-adv-x="1314" d="M172 418v1009h125v-1009q0 -315 354 -316q180 0 274.5 73t94.5 243v1009h127v-1009q0 -231 -125 -333.5t-371 -102.5q-236 0 -357.5 102.5t-121.5 333.5zM430 1700v162h119v-162h-119zM831 1700v162h121v-162h-121z" />
<glyph unicode="&#xdd;" horiz-adv-x="1105" d="M35 1427h141l379 -673l373 673h141l-451 -815v-612h-126v612zM301 1737l426 194l47 -112l-430 -183z" />
<glyph unicode="&#xde;" horiz-adv-x="1216" d="M170 0v1427h125v-237h393q229 0 337 -108.5t108 -338.5q0 -233 -111 -359t-334 -126h-393v-258h-125zM295 379h393q313 0 313 364q0 170 -74.5 249t-238.5 79h-393v-692z" />
<glyph unicode="&#xdf;" horiz-adv-x="1226" d="M188 0v1128q0 205 91.5 288t293.5 83q207 0 293 -66.5t86 -220.5q0 -203 -147 -264q-88 -35 -111.5 -52t-23.5 -48q0 -25 29.5 -49.5t146.5 -91.5l128 -73q30 -17 75 -52t56 -61.5t11 -65.5q0 -266 -99 -369.5t-388 -103.5l-180 18l8 104q137 -8 172 -8q117 0 188.5 18.5 t108.5 65.5t49 105.5t12 158.5q0 29 -50 66t-183 108q-135 72 -174 114t-39 109.5t38.5 104.5t133.5 78q70 29 90 71t20 111q0 100 -55 139t-194.5 39t-200 -56t-60.5 -220v-1108h-125z" />
<glyph unicode="&#xe0;" horiz-adv-x="1069" d="M94 289q0 141 73 212.5t228 86.5l348 35v92q0 211 -196 211l-389 -31l-8 109q242 39 401.5 38.5t236 -80t76.5 -247.5v-535q8 -78 133 -92l-6 -106q-162 0 -231 77q-184 -80 -393 -79q-129 0 -201 79.5t-72 229.5zM221 291q0 -98 42 -150.5t118 -52.5q78 0 168 17.5 t143 33.5l51 19v362l-333 -31q-189 -16 -189 -198zM256 1413l45 109l426 -195l-41 -96z" />
<glyph unicode="&#xe1;" horiz-adv-x="1069" d="M94 289q0 141 73 212.5t228 86.5l348 35v92q0 211 -196 211l-389 -31l-8 109q242 39 401.5 38.5t236 -80t76.5 -247.5v-535q8 -78 133 -92l-6 -106q-162 0 -231 77q-184 -80 -393 -79q-129 0 -201 79.5t-72 229.5zM221 291q0 -98 42 -150.5t118 -52.5q78 0 168 17.5 t143 33.5l51 19v362l-333 -31q-189 -16 -189 -198zM258 1327l426 195l47 -113l-430 -182z" />
<glyph unicode="&#xe2;" horiz-adv-x="1069" d="M94 289q0 141 73 212.5t228 86.5l348 35v92q0 211 -196 211l-389 -31l-8 109q242 39 401.5 38.5t236 -80t76.5 -247.5v-535q8 -78 133 -92l-6 -106q-162 0 -231 77q-184 -80 -393 -79q-129 0 -201 79.5t-72 229.5zM197 1219l254 290h98l254 -290h-139l-162 184l-166 -184 h-139zM221 291q0 -98 42 -150.5t118 -52.5q78 0 168 17.5t143 33.5l51 19v362l-333 -31q-189 -16 -189 -198z" />
<glyph unicode="&#xe3;" horiz-adv-x="1069" d="M94 289q0 141 73 212.5t228 86.5l348 35v92q0 211 -196 211l-389 -31l-6 109q240 39 399.5 38.5t237 -80t77.5 -247.5v-535q4 -78 131 -92l-6 -106q-162 0 -229 77q-186 -80 -395 -79q-129 0 -201 79.5t-72 229.5zM174 1378q102 104 180 105q49 0 161 -51.5t140 -51.5 q18 0 52 20.5t59 41.5l27 20l28 -96q-92 -98 -166 -98q-47 0 -159.5 52t-143.5 52q-20 0 -57 -22.5t-64 -44.5l-26 -23zM221 291q0 -98 42 -150.5t118 -52.5q78 0 168 17.5t143 33.5l51 19v362l-331 -31q-191 -16 -191 -198z" />
<glyph unicode="&#xe4;" horiz-adv-x="1069" d="M94 289q0 141 73 212.5t228 86.5l348 35v92q0 211 -196 211l-389 -31l-6 109q240 39 399.5 38.5t237 -80t77.5 -247.5v-535q4 -78 131 -92l-6 -106q-162 0 -229 77q-186 -80 -395 -79q-129 0 -201 79.5t-72 229.5zM221 291q0 -98 42 -150.5t118 -52.5q78 0 168 17.5 t143 33.5l51 19v362l-331 -31q-191 -16 -191 -198zM256 1290v162h119v-162h-119zM657 1290v162h119v-162h-119z" />
<glyph unicode="&#xe5;" horiz-adv-x="1069" d="M94 289q0 141 73 212.5t228 86.5l348 35v92q0 211 -196 211l-389 -31l-8 109q242 39 401.5 38.5t236 -80t76.5 -247.5v-535q8 -78 133 -92l-6 -106q-162 0 -231 77q-184 -80 -393 -79q-129 0 -201 79.5t-72 229.5zM221 291q0 -98 42 -150.5t118 -52.5q78 0 168 17.5 t143 33.5l51 19v362l-333 -31q-189 -16 -189 -198zM317 1325q0 86 59.5 145.5t147.5 59.5q86 0 145.5 -59.5t59.5 -145.5q0 -88 -59.5 -147.5t-145.5 -59.5q-88 0 -147.5 59.5t-59.5 147.5zM414 1325q0 -47 32.5 -81t77.5 -34t78 34t33 81t-33 80t-78 33t-77.5 -33 t-32.5 -80z" />
<glyph unicode="&#xe6;" horiz-adv-x="1695" d="M111 289q0 164 82.5 224t289.5 83l277 27v92q0 211 -197 211q-68 0 -165 -5.5t-160 -11.5l-64 -4l-4 111q238 27 397 26q221 0 279 -165q100 166 334 165q203 0 303 -115.5t100 -367.5l-6 -98h-696q2 -188 66.5 -278.5t219.5 -90.5l373 19l4 -103q-229 -29 -389 -28 q-203 0 -299 114l-70 -31q-188 -84 -403 -83q-272 0 -272 309zM238 291q0 -98 42 -150.5t117 -52.5q182 0 406 86q-47 113 -47 346l-330 -31q-98 -10 -143 -56t-45 -142zM881 563h577q0 199 -66.5 285t-211.5 86q-299 0 -299 -371z" />
<glyph unicode="&#xe7;" horiz-adv-x="894" d="M111 530q0 281 96 396.5t325 115.5q39 0 106 -6t114 -12l47 -6l-4 -109q-164 18 -242 19q-182 0 -249.5 -87t-67.5 -311q0 -248 62 -342t255 -94l244 19l6 -109q-184 -25 -273 -24h-4v-86q119 0 171.5 -32t52.5 -122q0 -172 -183 -172l-172 12l4 82q84 -6 146 -6 q92 0 92 84q0 76 -92 76h-96v168q-195 16 -266.5 138.5t-71.5 407.5z" />
<glyph unicode="&#xe8;" horiz-adv-x="1032" d="M109 508q0 535 421 534q203 0 303.5 -115.5t100.5 -367.5l-4 -98h-697q0 -188 64.5 -278.5t220.5 -90.5q66 0 160 5t153 9l62 5l4 -103q-231 -29 -391 -28q-221 2 -309 131t-88 397zM233 563h578q0 201 -66.5 286t-214.5 85q-297 0 -297 -371zM242 1405l45 108l426 -194 l-41 -96z" />
<glyph unicode="&#xe9;" horiz-adv-x="1032" d="M109 508q0 535 421 534q203 0 303.5 -115.5t100.5 -367.5l-4 -98h-697q0 -188 64.5 -278.5t220.5 -90.5q66 0 160 5t153 9l62 5l4 -103q-231 -29 -391 -28q-221 2 -309 131t-88 397zM233 563h578q0 201 -66.5 286t-214.5 85q-297 0 -297 -371zM324 1327l426 195l47 -113 l-430 -182z" />
<glyph unicode="&#xea;" horiz-adv-x="1032" d="M109 508q0 535 421 534q203 0 303.5 -115.5t100.5 -367.5l-4 -98h-697q0 -188 64.5 -278.5t220.5 -90.5q66 0 160 5t153 9l62 5l4 -103q-231 -29 -391 -28q-221 2 -309 131t-88 397zM233 563h578q0 201 -66.5 286t-214.5 85q-297 0 -297 -371zM238 1219l254 290h98 l254 -290h-139l-162 184l-166 -184h-139z" />
<glyph unicode="&#xeb;" horiz-adv-x="1032" d="M109 508q0 535 423 534q203 0 303.5 -115.5t100.5 -367.5l-6 -98h-694q0 -188 64.5 -278.5t219.5 -90.5q66 0 160 5t156 9l59 5l4 -103q-231 -29 -391 -28q-221 2 -310 131t-89 397zM233 563h578q0 201 -65.5 286t-213.5 85q-297 0 -299 -371zM266 1290v162h119v-162 h-119zM668 1290v162h120v-162h-120z" />
<glyph unicode="&#xec;" horiz-adv-x="534" d="M27 1413l45 109l426 -195l-41 -96zM207 0v1024h123v-1024h-123z" />
<glyph unicode="&#xed;" horiz-adv-x="534" d="M88 1327l426 195l47 -113l-430 -182zM207 0v1024h123v-1024h-123z" />
<glyph unicode="&#xee;" horiz-adv-x="538" d="M-39 1219l254 290h98l254 -290h-139l-162 184l-166 -184h-139zM207 0v1024h123v-1024h-123z" />
<glyph unicode="&#xef;" horiz-adv-x="534" d="M0 1290v162h121v-162h-121zM207 0v1024h123v-1024h-123zM403 1290v162h119v-162h-119z" />
<glyph unicode="&#xf0;" d="M90 449q0 195 116 311.5t310 116.5q156 0 356 -80q-12 289 -319 458l-231 -161l-58 80l189 131q-115 49 -248 84l31 104q199 -49 325 -111l205 144l57 -80l-166 -117q344 -207 344 -606q0 -403 -106.5 -572t-353.5 -169q-213 0 -332 121t-119 346zM219 449 q0 -168 82 -260.5t240 -92.5q180 0 254.5 129t76.5 459q-203 80 -350 80q-139 0 -221 -88t-82 -227z" />
<glyph unicode="&#xf1;" horiz-adv-x="1173" d="M195 0v1024h122v-74q176 92 332 92q205 0 273.5 -108.5t68.5 -401.5v-532h-123v530q0 233 -44 316.5t-189 83.5q-152 0 -318 -86v-844h-122zM283 1378q102 104 180 105q49 0 160.5 -51.5t140.5 -51.5q18 0 52 20.5t61 41.5l24 20l29 -96q-92 -98 -166 -98 q-47 0 -159.5 52t-143.5 52q-20 0 -57 -22.5t-64 -44.5l-27 -23z" />
<glyph unicode="&#xf2;" horiz-adv-x="1079" d="M111 528q0 274 98 394t334 120q223 0 324.5 -123.5t101.5 -392.5q0 -291 -90.5 -418.5t-335.5 -127.5q-250 0 -341 123.5t-91 424.5zM236 528q0 -248 59 -343t248 -95q186 0 242.5 98.5t56.5 337.5q0 217 -71 311.5t-228 94.5q-176 0 -241.5 -87.5t-65.5 -316.5z M297 1413l45 109l426 -195l-41 -96z" />
<glyph unicode="&#xf3;" horiz-adv-x="1079" d="M111 528q0 274 98 394t334 120q223 0 324.5 -123.5t101.5 -392.5q0 -291 -90.5 -418.5t-335.5 -127.5q-250 0 -341 123.5t-91 424.5zM236 528q0 -248 59 -343t248 -95q186 0 242.5 98.5t56.5 337.5q0 217 -71 311.5t-228 94.5q-176 0 -241.5 -87.5t-65.5 -316.5z M324 1327l426 195l47 -113l-430 -182z" />
<glyph unicode="&#xf4;" horiz-adv-x="1079" d="M111 528q0 274 98 394t334 120q223 0 324.5 -123.5t101.5 -392.5q0 -291 -90.5 -418.5t-335.5 -127.5q-250 0 -341 123.5t-91 424.5zM233 1219l254 290h99l254 -290h-140l-161 184l-166 -184h-140zM236 528q0 -248 59 -343t248 -95q186 0 242.5 98.5t56.5 337.5 q0 217 -71 311.5t-228 94.5q-176 0 -241.5 -87.5t-65.5 -316.5z" />
<glyph unicode="&#xf5;" horiz-adv-x="1079" d="M111 528q0 274 98 394t334 120q223 0 324.5 -123.5t101.5 -392.5q0 -291 -90.5 -418.5t-335.5 -127.5q-250 0 -341 123.5t-91 424.5zM215 1378q102 104 180 105q49 0 161 -51.5t140 -51.5q18 0 52 20.5t59 41.5l27 20l28 -96q-92 -98 -168 -98q-47 0 -158.5 52t-142.5 52 q-47 0 -149 -90zM236 528q0 -248 59 -343t248 -95q186 0 242.5 98.5t56.5 337.5q0 217 -71 311.5t-228 94.5q-176 0 -241.5 -87.5t-65.5 -316.5z" />
<glyph unicode="&#xf6;" horiz-adv-x="1079" d="M111 528q0 274 98 394t334 120q223 0 324.5 -123.5t101.5 -392.5q0 -291 -90.5 -418.5t-335.5 -127.5q-250 0 -341 123.5t-91 424.5zM236 528q0 -248 59 -343t248 -95q186 0 242.5 98.5t56.5 337.5q0 217 -71 311.5t-228 94.5q-176 0 -241.5 -87.5t-65.5 -316.5z M270 1290v162h121v-162h-121zM674 1290v162h119v-162h-119z" />
<glyph unicode="&#xf7;" d="M154 719v123h583v-123h-583zM283 858v186h321v-186h-321zM381 238v190h129v-190h-129z" />
<glyph unicode="&#xf8;" horiz-adv-x="1079" d="M111 528q0 274 98 394t334 120q80 0 157 -20l88 217l89 -31l-93 -221q184 -106 185 -461q0 -291 -90.5 -418.5t-335.5 -127.5q-88 0 -164 16l-92 -227l-88 30l94 228q-100 53 -141 172.5t-41 328.5zM236 528q0 -166 21.5 -257t84.5 -134l315 778q-53 16 -114 17 q-176 0 -241.5 -87.5t-65.5 -316.5zM420 102q51 -12 123 -12q186 0 242.5 98.5t56.5 337.5q0 262 -107 348z" />
<glyph unicode="&#xf9;" horiz-adv-x="1142" d="M174 489v535h121v-530q0 -240 44 -322t191 -82q68 0 144 21.5t117 44.5l40 20v848h121v-1024h-121v72q-160 -92 -315 -92q-209 0 -275.5 106t-66.5 403zM270 1409l49 111l426 -195l-47 -102z" />
<glyph unicode="&#xfa;" horiz-adv-x="1142" d="M174 489v535h121v-530q0 -240 44 -322t191 -82q68 0 144 21.5t117 44.5l40 20v848h121v-1024h-121v72q-160 -92 -315 -92q-209 0 -275.5 106t-66.5 403zM350 1327l426 195l47 -113l-430 -182z" />
<glyph unicode="&#xfb;" horiz-adv-x="1142" d="M174 489v535h121v-530q0 -240 44 -322t191 -82q68 0 144 21.5t117 44.5l40 20v848h121v-1024h-121v72q-160 -92 -315 -92q-209 0 -275.5 106t-66.5 403zM248 1219l254 290h98l254 -290h-139l-162 184l-166 -184h-139z" />
<glyph unicode="&#xfc;" horiz-adv-x="1142" d="M174 489v535h121v-530q0 -240 44 -322t191 -82q68 0 144 21.5t117 44.5l40 20v848h121v-1024h-121v72q-160 -92 -315 -92q-209 0 -275.5 106t-66.5 403zM322 1290v162h118v-162h-118zM723 1290v162h119v-162h-119z" />
<glyph unicode="&#xfd;" horiz-adv-x="983" d="M45 1024h125l272 -907h74l275 907h124l-442 -1485h-123l135 461h-139zM301 1327l426 195l47 -113l-430 -182z" />
<glyph unicode="&#xfe;" horiz-adv-x="1101" d="M254 -461v1940h123v-508q160 72 319 71q205 0 285 -116.5t80 -395.5q0 -305 -101.5 -427.5t-377.5 -122.5q-61 0 -205 10v-451h-123zM377 102q143 -12 205 -12q215 0 283.5 98.5t68.5 339.5q0 219 -52.5 310.5t-195.5 91.5q-68 0 -145.5 -16.5t-120.5 -32.5l-43 -17v-762 z" />
<glyph unicode="&#xff;" horiz-adv-x="985" d="M57 1024h125l273 -907h73l275 907h125l-443 -1485h-123l136 461h-140zM225 1290v162h121v-162h-121zM629 1290v162h119v-162h-119z" />
<glyph unicode="&#x100;" horiz-adv-x="1236" d="M63 0l410 1427h297l404 -1425h-127l-119 387h-623l-115 -389h-127zM293 1683v109h618v-109h-618zM336 510h563l-227 801h-107z" />
<glyph unicode="&#x101;" horiz-adv-x="1064" d="M104 289q0 141 73 212.5t229 86.5l348 35v92q0 211 -197 211l-389 -31l-8 109q242 39 401.5 38.5t236 -80t76.5 -247.5v-535q8 -78 134 -92l-7 -106q-162 0 -231 77q-184 -80 -393 -79q-129 0 -201 79.5t-72 229.5zM231 291q0 -98 42 -150.5t118 -52.5q78 0 168 17.5 t141 33.5l54 19v362l-334 -31q-189 -16 -189 -198zM238 1305v108h577v-108h-577z" />
<glyph unicode="&#x102;" horiz-adv-x="1236" d="M63 0l410 1427h297l404 -1425h-127l-119 387h-623l-115 -389h-127zM311 1894h125q2 -70 54.5 -111.5t128 -41.5t128 42t54.5 111h125q-2 -117 -88 -188.5t-219.5 -71.5t-219.5 71.5t-88 188.5zM336 510h563l-227 801h-107z" />
<glyph unicode="&#x103;" horiz-adv-x="1064" d="M104 289q0 141 73 212.5t229 86.5l348 35v92q0 211 -197 211l-389 -31l-8 109q242 39 401.5 38.5t236 -80t76.5 -247.5v-535q8 -78 134 -92l-7 -106q-162 0 -231 77q-184 -80 -393 -79q-129 0 -201 79.5t-72 229.5zM221 1493h125q2 -76 51 -123t135 -47t135.5 47 t51.5 123h125q-4 -125 -87 -203t-224.5 -78t-224.5 78t-87 203zM231 291q0 -98 42 -150.5t118 -52.5q78 0 168 17.5t141 33.5l54 19v362l-334 -31q-189 -16 -189 -198z" />
<glyph unicode="&#x104;" horiz-adv-x="1236" d="M63 0l410 1427h297l404 -1425h-11q-152 -152 -151 -219q0 -39 23.5 -64.5t60.5 -25.5l104 12l12 -104q-84 -18 -149 -19q-78 0 -128 47t-50 127q0 63 56 137t103 115l-116 381h-623l-115 -389h-127zM336 510h563l-227 801h-107z" />
<glyph unicode="&#x105;" horiz-adv-x="1064" d="M104 289q0 141 73 212.5t229 86.5l348 35v92q0 211 -197 211l-389 -31l-8 109q242 39 401.5 38.5t236 -80t76.5 -247.5v-535q8 -78 134 -92l-7 -106q-43 0 -63 2q-133 -141 -133 -201q0 -39 23.5 -64.5t60.5 -25.5l104 12l13 -104q-84 -18 -150 -19q-78 0 -128 47 t-50 127q0 104 160 252q-41 18 -68 51q-184 -80 -393 -79q-129 0 -201 79.5t-72 229.5zM231 291q0 -98 42 -150.5t118 -52.5q78 0 168 17.5t141 33.5l54 19v362l-334 -31q-189 -16 -189 -198z" />
<glyph unicode="&#x106;" horiz-adv-x="1095" d="M109 709q0 188 21.5 315t76.5 228.5t158.5 148.5t259.5 47q84 0 181 -11.5t152 -21.5l54 -10l-8 -117q-217 39 -369 39q-125 0 -205 -38t-121 -124t-55 -189.5t-14 -266.5q0 -127 8 -215t32.5 -167t68.5 -125t116 -73t172 -27q59 0 151.5 9.5t153.5 19.5l62 8l6 -114 q-223 -45 -385 -45q-156 0 -259.5 47t-158.5 146t-76.5 225.5t-21.5 310.5zM356 1716l426 195l47 -113l-430 -182z" />
<glyph unicode="&#x107;" horiz-adv-x="894" d="M111 530q0 281 96 396.5t325 115.5q39 0 106 -6t114 -12l47 -6l-4 -109q-164 18 -242 19q-182 0 -249.5 -87t-67.5 -311q0 -248 62 -342t255 -94l244 19l6 -109q-184 -25 -273 -24q-244 0 -331.5 120.5t-87.5 429.5zM256 1327l426 195l47 -113l-430 -182z" />
<glyph unicode="&#x108;" horiz-adv-x="1095" d="M109 709q0 188 21.5 315t76.5 228.5t158.5 148.5t259.5 47q84 0 181 -11.5t152 -21.5l54 -10l-8 -117q-217 39 -369 39q-125 0 -205 -38t-121 -124t-55 -189.5t-14 -266.5q0 -127 8 -215t32.5 -167t68.5 -125t116 -73t172 -27q59 0 151.5 9.5t153.5 19.5l62 8l6 -114 q-223 -45 -385 -45q-156 0 -259.5 47t-158.5 146t-76.5 225.5t-21.5 310.5zM297 1636l274 269h109l272 -269h-145l-180 170l-181 -170h-149z" />
<glyph unicode="&#x109;" horiz-adv-x="894" d="M111 530q0 281 96 396.5t325 115.5q39 0 106 -6t114 -12l47 -6l-4 -109q-164 18 -242 19q-182 0 -249.5 -87t-67.5 -311q0 -248 62 -342t255 -94l244 19l6 -109q-184 -25 -273 -24q-244 0 -331.5 120.5t-87.5 429.5zM174 1219l254 290h98l254 -290h-139l-162 184 l-166 -184h-139z" />
<glyph unicode="&#x10a;" horiz-adv-x="1095" d="M109 709q0 188 21.5 315t76.5 228.5t158.5 148.5t259.5 47q84 0 181 -11.5t152 -21.5l54 -10l-8 -117q-217 39 -369 39q-125 0 -205 -38t-121 -124t-55 -189.5t-14 -266.5q0 -127 8 -215t32.5 -167t68.5 -125t116 -73t172 -27q59 0 151.5 9.5t153.5 19.5l62 8l6 -114 q-223 -45 -385 -45q-156 0 -259.5 47t-158.5 146t-76.5 225.5t-21.5 310.5zM532 1696v153h123v-153h-123z" />
<glyph unicode="&#x10b;" horiz-adv-x="894" d="M111 530q0 281 96 396.5t325 115.5q39 0 106 -6t114 -12l47 -6l-4 -109q-164 18 -242 19q-182 0 -249.5 -87t-67.5 -311q0 -248 62 -342t255 -94l244 19l6 -109q-184 -25 -273 -24q-244 0 -331.5 120.5t-87.5 429.5zM426 1276v154h123v-154h-123z" />
<glyph unicode="&#x10c;" horiz-adv-x="1095" d="M109 709q0 188 21.5 315t76.5 228.5t158.5 148.5t259.5 47q84 0 181 -11.5t152 -21.5l54 -10l-8 -117q-217 39 -369 39q-125 0 -205 -38t-121 -124t-55 -189.5t-14 -266.5q0 -127 8 -215t32.5 -167t68.5 -125t116 -73t172 -27q59 0 151.5 9.5t153.5 19.5l62 8l6 -114 q-223 -45 -385 -45q-156 0 -259.5 47t-158.5 146t-76.5 225.5t-21.5 310.5zM274 1911h148l180 -172l180 172h148l-273 -269h-108z" />
<glyph unicode="&#x10d;" horiz-adv-x="894" d="M111 530q0 281 96 396.5t325 115.5q39 0 106 -6t114 -12l47 -6l-4 -109q-164 18 -242 19q-182 0 -249.5 -87t-67.5 -311q0 -248 62 -342t255 -94l244 19l6 -109q-184 -25 -273 -24q-244 0 -331.5 120.5t-87.5 429.5zM186 1509h138l165 -182l164 182h140l-254 -290h-101z " />
<glyph unicode="&#x10e;" horiz-adv-x="1323" d="M195 0v1427h514q508 0 508 -692q0 -735 -508 -735h-514zM285 1911h147l180 -172l181 172h147l-272 -269h-109zM319 119h390q106 0 183 52t118 144.5t58 194.5t17 225q0 573 -376 574h-390v-1190z" />
<glyph unicode="&#x10f;" horiz-adv-x="1480" d="M111 504q0 276 97 407t331 131q102 0 258 -24v416h123v-1434h-123v74q-162 -94 -328 -94q-59 0 -104.5 9t-95.5 41.5t-82.5 88t-54 154t-21.5 231.5zM233 500q0 -129 20.5 -214t59.5 -125t78 -54.5t90 -14.5q68 0 147 22.5t124 45.5l45 20v729q-225 23 -254 23 q-174 0 -242 -104.5t-68 -327.5zM1192 963v464h119v-464h-119z" />
<glyph unicode="&#x110;" horiz-adv-x="1323" d="M47 655v119h148v653h514q508 0 508 -692q0 -735 -508 -735h-514v655h-148zM319 119h390q106 0 183 52t118 144.5t58 194.5t17 225q0 573 -376 574h-390v-535h338v-119h-338v-536z" />
<glyph unicode="&#x111;" horiz-adv-x="1105" d="M111 504q0 276 97 407t331 131q102 0 258 -24v256h-381v108h381v52h123v-52h73v-108h-73v-1274h-123v74q-162 -94 -328 -94q-59 0 -104.5 9t-95.5 41.5t-82.5 88t-54 154t-21.5 231.5zM233 500q0 -129 20.5 -214t59.5 -125t78 -54.5t90 -14.5q68 0 147 22.5t124 45.5 l45 20v729q-225 23 -254 23q-174 0 -242 -104.5t-68 -327.5z" />
<glyph unicode="&#x112;" horiz-adv-x="1161" d="M195 0v1427h852v-118h-728v-523h605v-118h-605v-549h728v-119h-852zM307 1688v108h619v-108h-619z" />
<glyph unicode="&#x113;" horiz-adv-x="1038" d="M111 508q0 535 421 534q203 0 303.5 -115.5t100.5 -367.5l-4 -98h-696q0 -188 64.5 -278.5t219.5 -90.5q66 0 160 5t156 9l59 5l4 -103q-231 -29 -391 -28q-221 2 -309 131t-88 397zM236 563h577q0 201 -66.5 286t-214.5 85q-296 0 -296 -371zM246 1305v108h577v-108 h-577z" />
<glyph unicode="&#x114;" horiz-adv-x="1161" d="M195 0v1427h852v-118h-728v-523h605v-118h-605v-549h728v-119h-852zM330 1894h125q2 -70 54 -111.5t128 -41.5t128 42t54 111h125q-2 -117 -88 -188.5t-219 -71.5t-219 71.5t-88 188.5z" />
<glyph unicode="&#x115;" horiz-adv-x="1038" d="M111 508q0 535 421 534q203 0 303.5 -115.5t100.5 -367.5l-4 -98h-696q0 -188 64.5 -278.5t219.5 -90.5q66 0 160 5t156 9l59 5l4 -103q-231 -29 -391 -28q-221 2 -309 131t-88 397zM221 1493h125q2 -76 51 -123t135 -47t135.5 47t51.5 123h125q-4 -125 -88 -203 t-224 -78q-141 0 -224 78t-87 203zM236 563h577q0 201 -66.5 286t-214.5 85q-296 0 -296 -371z" />
<glyph unicode="&#x116;" horiz-adv-x="1161" d="M195 0v1427h852v-118h-728v-523h605v-118h-605v-549h728v-119h-852zM559 1696v153h123v-153h-123z" />
<glyph unicode="&#x117;" horiz-adv-x="1038" d="M111 508q0 535 421 534q203 0 303.5 -115.5t100.5 -367.5l-4 -98h-696q0 -188 64.5 -278.5t219.5 -90.5q66 0 160 5t156 9l59 5l4 -103q-231 -29 -391 -28q-221 2 -309 131t-88 397zM236 563h577q0 201 -66.5 286t-214.5 85q-296 0 -296 -371zM457 1276v154h123v-154 h-123z" />
<glyph unicode="&#x118;" horiz-adv-x="1161" d="M195 0v1427h852v-118h-728v-523h605v-118h-605v-549h728v-119h-58q-23 -16 -86 -96t-63 -121q0 -39 23.5 -64.5t60.5 -25.5l104 12l12 -104q-84 -18 -149 -19q-78 0 -128 47t-50 127q0 59 50 129t101 115h-669z" />
<glyph unicode="&#x119;" horiz-adv-x="1038" d="M111 508q0 535 421 534q203 0 303.5 -115.5t100.5 -367.5l-4 -98h-696q0 -188 64.5 -278.5t219.5 -90.5q66 0 160 5t156 9l59 5l4 -103q-20 -4 -43 -6q-4 -2 -40 -40t-72.5 -92t-36.5 -85q0 -39 23.5 -64.5t60.5 -25.5l104 12l12 -104q-84 -18 -149 -19q-78 0 -128 47 t-50 127q0 98 139 232q-117 -10 -211 -10q-221 2 -309 131t-88 397zM236 563h577q0 201 -66.5 286t-214.5 85q-296 0 -296 -371z" />
<glyph unicode="&#x11a;" horiz-adv-x="1161" d="M195 0v1427h852v-118h-728v-523h605v-118h-605v-549h728v-119h-852zM311 1919h148l180 -172l180 172h148l-273 -268h-108z" />
<glyph unicode="&#x11b;" horiz-adv-x="1038" d="M111 508q0 535 421 534q203 0 303.5 -115.5t100.5 -367.5l-4 -98h-696q0 -188 64.5 -278.5t219.5 -90.5q66 0 160 5t156 9l59 5l4 -103q-231 -29 -391 -28q-221 2 -309 131t-88 397zM215 1509h137l166 -182l164 182h139l-254 -290h-100zM236 563h577q0 201 -66.5 286 t-214.5 85q-296 0 -296 -371z" />
<glyph unicode="&#x11c;" horiz-adv-x="1251" d="M113 711q0 371 118.5 554t423.5 183q215 0 459 -53l-6 -115q-256 47 -442 47q-248 0 -335 -147.5t-87 -468.5q0 -319 87 -465t333 -146q57 0 136 8.5t134 16.5l55 8v471h-262v117h387v-690q-291 -51 -457 -51q-305 0 -424.5 181t-119.5 550zM324 1636l274 269h109 l272 -269h-145l-181 170l-180 -170h-149z" />
<glyph unicode="&#x11d;" horiz-adv-x="1048" d="M102 -170q0 86 37 138t129 120q-51 33 -51 139l66 160q-166 70 -166 309q0 348 368 348l215 -26l295 6v-109h-198q70 -70 69 -219q0 -190 -92 -266t-295 -76q-59 0 -104 8q-41 -100 -41 -126q0 -68 40 -84.5t220 -16.5q217 0 301 -58.5t84 -238.5q0 -170 -111.5 -248.5 t-337.5 -78.5q-246 0 -337 68.5t-91 250.5zM221 1219l254 290h98l254 -290h-139l-162 184l-166 -184h-139zM225 -162q0 -123 61.5 -170t245.5 -47q168 0 244 50t76 163q0 123 -55.5 158t-210.5 35l-232 8q-76 -53 -102.5 -93.5t-26.5 -103.5zM240 696q0 -125 53 -180 t186 -55q141 0 201.5 52t60.5 183q0 143 -55 191.5t-203 48.5q-127 0 -185 -53.5t-58 -186.5z" />
<glyph unicode="&#x11e;" horiz-adv-x="1251" d="M113 711q0 371 118.5 554t423.5 183q215 0 459 -53l-6 -115q-256 47 -442 47q-248 0 -335 -147.5t-87 -468.5q0 -319 87 -465t333 -146q57 0 136 8.5t134 16.5l55 8v471h-262v117h387v-690q-291 -51 -457 -51q-305 0 -424.5 181t-119.5 550zM358 1894h125 q2 -70 54.5 -111.5t128.5 -41.5q78 0 129 42t53 111h125q-2 -117 -88 -188.5t-219.5 -71.5t-218.5 71.5t-89 188.5z" />
<glyph unicode="&#x11f;" horiz-adv-x="1048" d="M102 -170q0 86 37 138t129 120q-51 33 -51 139l66 160q-166 70 -166 309q0 348 368 348l215 -26l295 6v-109h-198q70 -70 69 -219q0 -190 -92 -266t-295 -76q-59 0 -104 8q-41 -100 -41 -126q0 -68 40 -84.5t220 -16.5q217 0 301 -58.5t84 -238.5q0 -170 -111.5 -248.5 t-337.5 -78.5q-246 0 -337 68.5t-91 250.5zM213 1493h125q2 -76 51 -123t135 -47t135.5 47t51.5 123h125q-4 -125 -87 -203t-224.5 -78t-224.5 78t-87 203zM225 -162q0 -123 61.5 -170t245.5 -47q168 0 244 50t76 163q0 123 -55.5 158t-210.5 35l-232 8 q-76 -53 -102.5 -93.5t-26.5 -103.5zM240 696q0 -125 53 -180t186 -55q141 0 201.5 52t60.5 183q0 143 -55 191.5t-203 48.5q-127 0 -185 -53.5t-58 -186.5z" />
<glyph unicode="&#x120;" horiz-adv-x="1251" d="M113 711q0 371 118.5 554t423.5 183q215 0 459 -53l-6 -115q-256 47 -442 47q-248 0 -335 -147.5t-87 -468.5q0 -319 87 -465t333 -146q57 0 136 8.5t134 16.5l55 8v471h-262v117h387v-690q-291 -51 -457 -51q-305 0 -424.5 181t-119.5 550zM569 1700v153h123v-153h-123z " />
<glyph unicode="&#x121;" horiz-adv-x="1048" d="M102 -170q0 86 37 138t129 120q-51 33 -51 139l66 160q-166 70 -166 309q0 348 368 348l215 -26l295 6v-109h-198q70 -70 69 -219q0 -190 -92 -266t-295 -76q-59 0 -104 8q-41 -100 -41 -126q0 -68 40 -84.5t220 -16.5q217 0 301 -58.5t84 -238.5q0 -170 -111.5 -248.5 t-337.5 -78.5q-246 0 -337 68.5t-91 250.5zM225 -162q0 -123 61.5 -170t245.5 -47q168 0 244 50t76 163q0 123 -55.5 158t-210.5 35l-232 8q-76 -53 -102.5 -93.5t-26.5 -103.5zM240 696q0 -125 53 -180t186 -55q141 0 201.5 52t60.5 183q0 143 -55 191.5t-203 48.5 q-127 0 -185 -53.5t-58 -186.5zM463 1276v154h123v-154h-123z" />
<glyph unicode="&#x122;" horiz-adv-x="1251" d="M113 711q0 371 118.5 554t423.5 183q215 0 459 -53l-6 -115q-256 47 -442 47q-248 0 -335 -147.5t-87 -468.5q0 -319 87 -465t333 -146q57 0 136 8.5t134 16.5l55 8v471h-262v117h387v-690q-291 -51 -457 -51q-305 0 -424.5 181t-119.5 550zM524 -569l82 409h123 l-100 -409h-105z" />
<glyph unicode="&#x123;" horiz-adv-x="1048" d="M102 -170q0 86 37 138t129 120q-51 33 -51 139l66 160q-166 70 -166 309q0 348 368 348l215 -26l295 6v-109h-198q70 -70 69 -219q0 -190 -92 -266t-295 -76q-59 0 -104 8q-41 -100 -41 -126q0 -68 40 -84.5t220 -16.5q217 0 301 -58.5t84 -238.5q0 -170 -111.5 -248.5 t-337.5 -78.5q-246 0 -337 68.5t-91 250.5zM225 -162q0 -123 61.5 -170t245.5 -47q168 0 244 50t76 163q0 123 -55.5 158t-210.5 35l-232 8q-76 -53 -102.5 -93.5t-26.5 -103.5zM240 696q0 -125 53 -180t186 -55q141 0 201.5 52t60.5 183q0 143 -55 191.5t-203 48.5 q-127 0 -185 -53.5t-58 -186.5zM399 1208l99 412h106l-82 -412h-123z" />
<glyph unicode="&#x124;" horiz-adv-x="1409" d="M195 0v1427h124v-649h773v649h125v-1427h-125v659h-773v-659h-124zM379 1634l274 269h109l272 -269h-145l-180 170l-181 -170h-149z" />
<glyph unicode="&#x125;" horiz-adv-x="1157" d="M188 0v1509h123v-538q174 72 332 71q205 0 273.5 -108.5t68.5 -401.5v-532h-123v530q0 233 -44 316.5t-189 83.5q-154 0 -318 -68v-862h-123zM274 1597l254 291h99l254 -291h-140l-161 185l-166 -185h-140z" />
<glyph unicode="&#x126;" horiz-adv-x="1409" d="M35 1051v108h160v268h124v-268h773v268h125v-268h178v-108h-178v-1051h-125v659h-773v-659h-124v1051h-160zM319 778h773v273h-773v-273z" />
<glyph unicode="&#x127;" horiz-adv-x="1157" d="M55 1212v109h133v188h123v-188h322v-109h-322v-241q174 72 332 71q205 0 273.5 -108.5t68.5 -401.5v-532h-123v530q0 233 -44 316.5t-189 83.5q-154 0 -318 -68v-862h-123v1212h-133z" />
<glyph unicode="&#x128;" horiz-adv-x="489" d="M-98 1763q115 121 192 121q53 0 178 -59.5t152 -59.5q18 0 56 25t69 49l29 25l30 -97q-106 -117 -182 -116q-49 0 -175 60.5t-155 60.5q-20 0 -61 -26t-72 -52l-31 -27zM182 0v1427h125v-1427h-125z" />
<glyph unicode="&#x129;" horiz-adv-x="538" d="M-57 1378q102 104 180 105q49 0 160.5 -51.5t140.5 -51.5q18 0 52 20.5t61 41.5l24 20l29 -96q-92 -98 -168 -98q-47 0 -158.5 52t-142.5 52q-47 0 -150 -90zM207 0v1024h123v-1024h-123z" />
<glyph unicode="&#x12a;" horiz-adv-x="489" d="M-63 1710v109h618v-109h-618zM182 0v1427h125v-1427h-125z" />
<glyph unicode="&#x12b;" horiz-adv-x="538" d="M-20 1305v108h577v-108h-577zM207 0v1024h123v-1024h-123z" />
<glyph unicode="&#x12c;" horiz-adv-x="489" d="M-63 1894h124q2 -70 54.5 -111.5t128.5 -41.5q78 0 130 42t54 111h125q-4 -117 -90 -188.5t-219 -71.5q-131 0 -217 71.5t-90 188.5zM182 0v1427h125v-1427h-125z" />
<glyph unicode="&#x12d;" horiz-adv-x="538" d="M-41 1493h125q2 -76 51 -123t135 -47t135.5 47t51.5 123h125q-4 -125 -88 -203t-224 -78q-141 0 -224 78t-87 203zM207 0v1024h123v-1024h-123z" />
<glyph unicode="&#x12e;" horiz-adv-x="489" d="M29 -244q0 106 153 244v1427h125v-1427h-2q-23 -16 -86 -96t-63 -121q0 -39 23.5 -64.5t60.5 -25.5l104 12l12 -104q-84 -18 -149 -19q-78 0 -128 47t-50 127z" />
<glyph unicode="&#x12f;" horiz-adv-x="466" d="M-186 0v1024h123v-1024h-123zM-186 1280v154h123v-154h-123zM16 -244q0 102 158 250l10 8l111 -12q-152 -152 -152 -219q0 -39 23.5 -64.5t60.5 -25.5l105 12l12 -104q-84 -18 -149 -19q-78 0 -128.5 47t-50.5 127z" />
<glyph unicode="&#x130;" horiz-adv-x="489" d="M182 0v1427h125v-1427h-125zM182 1696v153h123v-153h-123z" />
<glyph unicode="&#x131;" horiz-adv-x="534" d="M207 0v1024h123v-1024h-123z" />
<glyph unicode="&#x134;" horiz-adv-x="626" d="M16 1634l275 269h108l273 -269h-146l-180 170l-180 -170h-150zM70 -31q59 0 88.5 2t63.5 10.5t48.5 25t27.5 47t16 74.5t3 112v1190h127q0 -217 1 -604.5t1 -606.5q0 -86 -9 -147.5t-31.5 -102.5t-48 -64.5t-75 -34.5t-93.5 -14t-119 -3v116z" />
<glyph unicode="&#x135;" horiz-adv-x="495" d="M-63 -358q166 94 215 161.5t49 208.5v1012h123v-1014q0 -182 -67 -276t-269 -197zM-45 1219l254 290h98l254 -290h-139l-162 184l-166 -184h-139z" />
<glyph unicode="&#x136;" horiz-adv-x="1220" d="M195 0v1427h124v-667l244 4l395 663h148l-430 -714l457 -713h-152l-414 643l-248 -4v-639h-124zM502 -569l82 409h123l-101 -409h-104z" />
<glyph unicode="&#x137;" horiz-adv-x="1007" d="M188 0v1479h123v-873l170 6l332 412h139l-360 -469l364 -555h-141l-332 492l-172 -7v-485h-123zM387 -569l82 409h123l-100 -409h-105z" />
<glyph unicode="&#x139;" horiz-adv-x="1062" d="M195 0v1427h124v-1306h652v-121h-776zM297 1716l426 195l47 -113l-430 -182z" />
<glyph unicode="&#x13a;" horiz-adv-x="483" d="M6 1741l426 194l47 -112l-430 -183zM180 0v1479h123v-1479h-123z" />
<glyph unicode="&#x13b;" horiz-adv-x="1062" d="M195 0v1427h124v-1306h652v-121h-776zM430 -569l82 409h123l-100 -409h-105z" />
<glyph unicode="&#x13c;" horiz-adv-x="483" d="M94 -569l82 409h123l-100 -409h-105zM180 0v1479h123v-1479h-123z" />
<glyph unicode="&#x13d;" horiz-adv-x="1062" d="M195 0v1427h124v-1306h652v-121h-776zM784 963v464h119v-464h-119z" />
<glyph unicode="&#x13e;" horiz-adv-x="856" d="M180 0v1479h123v-1479h-123zM569 963v464h119v-464h-119z" />
<glyph unicode="&#x141;" horiz-adv-x="1062" d="M-12 584l207 145v698h124v-612l373 262l64 -86l-437 -307v-563h652v-121h-776v598l-144 -100z" />
<glyph unicode="&#x142;" horiz-adv-x="542" d="M2 588l207 145v746h123v-660l157 111l62 -88l-219 -154v-688h-123v602l-146 -102z" />
<glyph unicode="&#x143;" horiz-adv-x="1413" d="M195 0v1427h241l608 -1286h50v1286h127v-1427h-240l-614 1286h-48v-1286h-124zM469 1716l426 195l47 -113l-430 -182z" />
<glyph unicode="&#x144;" horiz-adv-x="1167" d="M188 0v1024h123v-74q176 92 332 92q205 0 273.5 -108.5t68.5 -401.5v-532h-121v530q0 233 -44 316.5t-191 83.5q-152 0 -318 -86v-844h-123zM346 1327l426 195l47 -113l-430 -182z" />
<glyph unicode="&#x145;" horiz-adv-x="1413" d="M195 0v1427h241l608 -1286h50v1286h127v-1427h-240l-614 1286h-48v-1286h-124zM604 -569l82 409h123l-100 -409h-105z" />
<glyph unicode="&#x146;" horiz-adv-x="1167" d="M188 0v1024h123v-74q176 92 332 92q205 0 273.5 -108.5t68.5 -401.5v-532h-121v530q0 233 -44 316.5t-191 83.5q-152 0 -318 -86v-844h-123zM467 -569l82 409h123l-101 -409h-104z" />
<glyph unicode="&#x147;" horiz-adv-x="1413" d="M195 0v1427h241l608 -1286h50v1286h127v-1427h-240l-614 1286h-48v-1286h-124zM379 1903h147l181 -172l180 172h147l-272 -269h-109z" />
<glyph unicode="&#x148;" horiz-adv-x="1167" d="M188 0v1024h123v-74q176 92 332 92q205 0 273.5 -108.5t68.5 -401.5v-532h-121v530q0 233 -44 316.5t-191 83.5q-152 0 -318 -86v-844h-123zM281 1509h137l166 -182l164 182h139l-254 -290h-101z" />
<glyph unicode="&#x14a;" horiz-adv-x="1413" d="M195 0v1427h241l608 -1286h50v1286h127v-225q0 -217 1 -604t1 -606q0 -86 -9.5 -147.5t-32 -102.5t-48 -64.5t-74.5 -35t-93 -14.5t-120 -3v117q86 0 124 5t71.5 30.5t43 76t9.5 146.5h-113l-614 1286h-48v-1286h-124z" />
<glyph unicode="&#x14b;" horiz-adv-x="1167" d="M188 0v1024h123v-74q180 92 336 92q201 0 270.5 -113.5t69.5 -396.5v-540q0 -184 -61.5 -274.5t-257.5 -198.5l-54 104q156 92 203 159.5t47 207.5v540q0 223 -45 312.5t-186 89.5q-68 0 -149 -21.5t-128 -42.5l-45 -22v-846h-123z" />
<glyph unicode="&#x14c;" horiz-adv-x="1337" d="M113 707q0 375 120.5 558t434 183t435.5 -182.5t122 -558.5q0 -385 -120 -556t-437 -171q-315 0 -435 175t-120 552zM244 707q0 -160 17.5 -265.5t62.5 -186.5t129 -118t215 -37q254 0 340 138.5t86 468.5q0 319 -90.5 469.5t-335.5 150.5q-248 0 -336 -149t-88 -471z M354 1704v108h619v-108h-619z" />
<glyph unicode="&#x14d;" horiz-adv-x="1079" d="M111 528q0 274 98 394t334 120q223 0 324.5 -123.5t101.5 -392.5q0 -291 -90.5 -418.5t-335.5 -127.5q-250 0 -341 123.5t-91 424.5zM236 528q0 -248 59 -343t248 -95q186 0 242.5 98.5t56.5 337.5q0 217 -71 311.5t-228 94.5q-176 0 -241.5 -87.5t-65.5 -316.5z M250 1305v108h577v-108h-577z" />
<glyph unicode="&#x14e;" horiz-adv-x="1337" d="M113 707q0 375 120.5 558t434 183t435.5 -182.5t122 -558.5q0 -385 -120 -556t-437 -171q-315 0 -435 175t-120 552zM244 707q0 -160 17.5 -265.5t62.5 -186.5t129 -118t215 -37q254 0 340 138.5t86 468.5q0 319 -90.5 469.5t-335.5 150.5q-248 0 -336 -149t-88 -471z M360 1894h125q2 -70 54.5 -111.5t128.5 -41.5q78 0 130 42t54 111h125q-4 -117 -90 -188.5t-219 -71.5q-131 0 -217.5 71.5t-90.5 188.5z" />
<glyph unicode="&#x14f;" horiz-adv-x="1079" d="M111 528q0 274 98 394t334 120q223 0 324.5 -123.5t101.5 -392.5q0 -291 -90.5 -418.5t-335.5 -127.5q-250 0 -341 123.5t-91 424.5zM227 1493h125q4 -76 53.5 -123t133.5 -47q88 0 136 46t50 124h125q-4 -125 -87 -203t-224 -78q-139 0 -223.5 78t-88.5 203zM236 528 q0 -248 59 -343t248 -95q186 0 242.5 98.5t56.5 337.5q0 217 -71 311.5t-228 94.5q-176 0 -241.5 -87.5t-65.5 -316.5z" />
<glyph unicode="&#x150;" horiz-adv-x="1337" d="M113 707q0 375 120.5 558t434 183t435.5 -182.5t122 -558.5q0 -385 -120 -556t-437 -171q-315 0 -435 175t-120 552zM244 707q0 -160 17.5 -265.5t62.5 -186.5t129 -118t215 -37q254 0 340 138.5t86 468.5q0 319 -90.5 469.5t-335.5 150.5q-248 0 -336 -149t-88 -471z M279 1659l329 235l86 -69l-334 -232zM684 1659l328 233l88 -67l-336 -234z" />
<glyph unicode="&#x151;" horiz-adv-x="1079" d="M111 528q0 274 98 394t334 120q223 0 324.5 -123.5t101.5 -392.5q0 -291 -90.5 -418.5t-335.5 -127.5q-250 0 -341 123.5t-91 424.5zM209 1276l311 258l84 -76l-315 -256zM236 528q0 -248 59 -343t248 -95q186 0 242.5 98.5t56.5 337.5q0 217 -71 311.5t-228 94.5 q-176 0 -241.5 -87.5t-65.5 -316.5zM598 1276l311 258l82 -76l-313 -256z" />
<glyph unicode="&#x152;" horiz-adv-x="1933" d="M123 707q0 385 118.5 563t426.5 178q174 0 301 -21h837v-122h-712v-512h589v-123h-589v-547h712v-125h-835q-188 -18 -303 -18q-315 0 -430 173t-115 554zM254 709q0 -164 16.5 -269.5t62.5 -185.5t130 -116t217 -36q98 0 289 17v1186q-262 23 -291 22q-248 0 -336 -144 t-88 -474z" />
<glyph unicode="&#x153;" horiz-adv-x="1794" d="M121 528q0 274 99 394t335 120q281 0 365 -211q94 211 358 211q203 0 303 -115.5t100 -367.5l-6 -98h-694q0 -188 64.5 -278.5t220.5 -90.5q66 0 160 5t155 9l59 5l5 -103q-231 -29 -392 -28q-252 0 -338 188q-41 -98 -127 -143t-233 -45q-250 0 -342 123.5t-92 424.5z M248 528q0 -248 59.5 -343t247.5 -95q184 0 241.5 98.5t57.5 337.5q0 217 -70.5 311.5t-228.5 94.5q-176 0 -241.5 -87.5t-65.5 -316.5zM979 563h577q0 201 -65.5 286t-212.5 85q-299 0 -299 -371z" />
<glyph unicode="&#x154;" horiz-adv-x="1280" d="M195 0v1427h520q225 0 333.5 -101t108.5 -322q0 -344 -274 -416l293 -588h-142l-280 559h-435v-559h-124zM319 678h396q170 0 240.5 84t70.5 241.5t-76 231.5t-235 74h-396v-631zM403 1716l426 195l48 -113l-431 -182z" />
<glyph unicode="&#x155;" horiz-adv-x="727" d="M158 1327l426 195l47 -113l-430 -182zM188 0v1024h123v-145q18 14 52 36.5t132.5 67.5t190.5 61v-124q-86 -16 -180 -55.5t-146 -69.5l-49 -31v-764h-123z" />
<glyph unicode="&#x156;" horiz-adv-x="1282" d="M195 0v1427h520q225 0 333.5 -101t108.5 -322q0 -344 -274 -416l293 -588h-142l-280 559h-435v-559h-124zM319 678h396q170 0 240.5 84t70.5 241.5t-76 231.5t-235 74h-396v-631zM537 -569l81 409h123l-100 -409h-104z" />
<glyph unicode="&#x157;" horiz-adv-x="727" d="M102 -569l82 409h123l-100 -409h-105zM188 0v1024h123v-145q18 14 52 36.5t132.5 67.5t190.5 61v-124q-86 -16 -180 -55.5t-146 -69.5l-49 -31v-764h-123z" />
<glyph unicode="&#x158;" horiz-adv-x="1280" d="M195 0v1427h520q225 0 333.5 -101t108.5 -322q0 -344 -274 -416l293 -588h-142l-280 559h-435v-559h-124zM313 1903h148l180 -172l180 172h148l-273 -269h-108zM319 678h396q170 0 240.5 84t70.5 241.5t-76 231.5t-235 74h-396v-631z" />
<glyph unicode="&#x159;" horiz-adv-x="727" d="M92 1509h137l166 -182l164 182h139l-254 -290h-100zM188 0v1024h123v-145q18 14 52 36.5t132.5 67.5t190.5 61v-124q-86 -16 -180 -55.5t-146 -69.5l-49 -31v-764h-123z" />
<glyph unicode="&#x15a;" horiz-adv-x="1093" d="M96 1077q0 375 459 375l412 -39l-11 -117q-283 35 -401 35q-330 0 -330 -250q0 -145 75 -197.5t286 -92.5q225 -45 318 -121t93 -256q0 -227 -113.5 -328.5t-334.5 -101.5l-436 39l12 116q276 -35 422 -35q164 0 242.5 71t78.5 233q0 127 -70.5 179t-258.5 87 q-121 23 -193 46t-134 67t-89 115t-27 175zM315 1716l426 195l47 -113l-430 -182z" />
<glyph unicode="&#x15b;" horiz-adv-x="995" d="M117 754q0 154 103.5 221t256.5 67q70 0 161 -9t148 -17l56 -8l-4 -109q-221 33 -355 33q-242 0 -241 -174q0 -80 52 -114t214 -58q211 -35 290 -91.5t79 -197.5q0 -172 -100.5 -244.5t-295.5 -72.5l-352 36l8 109q229 -35 334 -35q143 0 212 43t69 158q0 88 -54.5 121.5 t-226.5 60.5q-199 31 -276.5 86.5t-77.5 194.5zM262 1327l426 195l47 -113l-430 -182z" />
<glyph unicode="&#x15c;" horiz-adv-x="1093" d="M96 1077q0 375 459 375l412 -39l-11 -117q-283 35 -401 35q-330 0 -330 -250q0 -145 75 -197.5t286 -92.5q225 -45 318 -121t93 -256q0 -227 -113.5 -328.5t-334.5 -101.5l-436 39l12 116q276 -35 422 -35q164 0 242.5 71t78.5 233q0 127 -70.5 179t-258.5 87 q-121 23 -193 46t-134 67t-89 115t-27 175zM225 1636l275 269h108l273 -269h-146l-180 170l-180 -170h-150z" />
<glyph unicode="&#x15d;" horiz-adv-x="995" d="M117 754q0 154 103.5 221t256.5 67q70 0 161 -9t148 -17l56 -8l-4 -109q-221 33 -355 33q-242 0 -241 -174q0 -80 52 -114t214 -58q211 -35 290 -91.5t79 -197.5q0 -172 -100.5 -244.5t-295.5 -72.5l-352 36l8 109q229 -35 334 -35q143 0 212 43t69 158q0 88 -54.5 121.5 t-226.5 60.5q-199 31 -276.5 86.5t-77.5 194.5zM195 1219l254 290h98l254 -290h-139l-162 184l-166 -184h-139z" />
<glyph unicode="&#x15e;" horiz-adv-x="1093" d="M96 1077q0 375 459 375l412 -39l-11 -117q-283 35 -401 35q-330 0 -330 -250q0 -145 75 -197.5t286 -92.5q225 -45 318 -121t93 -256q0 -215 -102 -316.5t-301 -111.5v-92q119 0 171 -32t52 -122q0 -172 -182 -172l-172 12l4 82q84 -6 145 -6q92 0 93 84q0 76 -93 76h-96 v168q-72 2 -172 11t-166 17l-65 11l12 116q276 -35 422 -35q164 0 242.5 71t78.5 233q0 127 -70.5 179t-258.5 87q-121 23 -193 46t-134 67t-89 115t-27 175z" />
<glyph unicode="&#x15f;" horiz-adv-x="995" d="M117 754q0 154 103.5 221t256.5 67q70 0 161 -9t148 -17l56 -8l-4 -109q-221 33 -355 33q-242 0 -241 -174q0 -80 52 -114t214 -58q211 -35 290 -91.5t79 -197.5q0 -166 -91.5 -238.5t-269.5 -78.5v-86q119 0 171 -32t52 -122q0 -172 -182 -172l-172 12l4 82 q84 -6 146 -6q92 0 92 84q0 76 -92 76h-97v166q-129 6 -309 34l8 109q229 -35 334 -35q143 0 212 43t69 158q0 88 -54.5 121.5t-226.5 60.5q-199 31 -276.5 86.5t-77.5 194.5z" />
<glyph unicode="&#x160;" horiz-adv-x="1093" d="M96 1077q0 375 459 375l412 -39l-11 -117q-283 35 -401 35q-330 0 -330 -250q0 -145 75 -197.5t286 -92.5q225 -45 318 -121t93 -256q0 -227 -113.5 -328.5t-334.5 -101.5l-436 39l12 116q276 -35 422 -35q164 0 242.5 71t78.5 233q0 127 -70.5 179t-258.5 87 q-121 23 -193 46t-134 67t-89 115t-27 175zM231 1911h148l180 -172l180 172h148l-273 -269h-108z" />
<glyph unicode="&#x161;" horiz-adv-x="995" d="M117 754q0 154 103.5 221t256.5 67q70 0 161 -9t148 -17l56 -8l-4 -109q-221 33 -355 33q-242 0 -241 -174q0 -80 52 -114t214 -58q211 -35 290 -91.5t79 -197.5q0 -172 -100.5 -244.5t-295.5 -72.5l-352 36l8 109q229 -35 334 -35q143 0 212 43t69 158q0 88 -54.5 121.5 t-226.5 60.5q-199 31 -276.5 86.5t-77.5 194.5zM211 1509h137l166 -182l164 182h139l-254 -290h-100z" />
<glyph unicode="&#x162;" horiz-adv-x="1013" d="M-6 1309v118h1024v-118h-447v-1309h-125v1309h-452zM403 -569l82 409h123l-100 -409h-105z" />
<glyph unicode="&#x163;" horiz-adv-x="753" d="M61 911v113h152v322h123v-322h342v-113h-342v-497q0 -199 27.5 -260.5t134.5 -61.5l190 14l6 -108q-135 -20 -207 -21q-154 0 -214 77t-60 294v563h-152zM270 -569l82 409h123l-100 -409h-105z" />
<glyph unicode="&#x164;" horiz-adv-x="1013" d="M-6 1309v118h1024v-118h-447v-1309h-125v1309h-452zM180 1903h148l180 -172l180 172h148l-273 -269h-108z" />
<glyph unicode="&#x165;" horiz-adv-x="1091" d="M61 911v113h152v322h123v-322h342v-113h-342v-497q0 -199 27.5 -260.5t134.5 -61.5l190 14l6 -108q-135 -20 -207 -21q-154 0 -214 77t-60 294v563h-152zM836 963v464h118v-464h-118z" />
<glyph unicode="&#x166;" horiz-adv-x="1013" d="M-6 1309v118h1024v-118h-447v-561h361v-109h-361v-639h-125v639h-337v109h337v561h-452z" />
<glyph unicode="&#x167;" horiz-adv-x="753" d="M61 911v113h152v322h123v-322h342v-113h-342v-317h-123v317h-152zM80 485v109h133v-109h-133zM213 348v137h123v-71q0 -199 27.5 -260.5t134.5 -61.5l190 14l6 -108q-135 -20 -207 -21q-154 0 -214 77t-60 294zM336 485v109h305v-109h-305z" />
<glyph unicode="&#x168;" horiz-adv-x="1316" d="M168 418v1009h127v-1009q0 -315 354 -316q180 0 274.5 73t94.5 243v1009h125v-1009q0 -231 -124 -333.5t-370 -102.5q-238 0 -359.5 103.5t-121.5 332.5zM309 1767q115 121 193 121q51 0 176 -59.5t153 -59.5q41 0 152 99l33 -94q-106 -117 -182 -117q-49 0 -175.5 60.5 t-156.5 60.5q-45 0 -164 -107z" />
<glyph unicode="&#x169;" horiz-adv-x="1142" d="M174 489v535h121v-530q0 -240 44 -322t191 -82q68 0 144 21.5t117 44.5l40 20v848h121v-1024h-121v72q-160 -92 -315 -92q-209 0 -275.5 106t-66.5 403zM244 1378q102 104 180 105q51 0 161.5 -51.5t139.5 -51.5q18 0 52 20.5t59 41.5l26 20l29 -96q-90 -98 -166 -98 q-47 0 -159.5 52t-143.5 52q-20 0 -57 -22.5t-64 -44.5l-27 -23z" />
<glyph unicode="&#x16a;" horiz-adv-x="1316" d="M168 418v1009h127v-1009q0 -315 354 -316q180 0 274.5 73t94.5 243v1009h125v-1009q0 -231 -124 -333.5t-370 -102.5q-238 0 -359.5 103.5t-121.5 332.5zM348 1704v108h619v-108h-619z" />
<glyph unicode="&#x16b;" horiz-adv-x="1142" d="M174 489v535h121v-530q0 -240 44 -322t191 -82q68 0 144 21.5t117 44.5l40 20v848h121v-1024h-121v72q-160 -92 -315 -92q-209 0 -275.5 106t-66.5 403zM283 1305v108h577v-108h-577z" />
<glyph unicode="&#x16c;" horiz-adv-x="1316" d="M168 418v1009h127v-1009q0 -315 354 -316q180 0 274.5 73t94.5 243v1009h125v-1009q0 -231 -124 -333.5t-370 -102.5q-238 0 -359.5 103.5t-121.5 332.5zM350 1894h125q2 -70 54.5 -111.5t127.5 -41.5q78 0 130.5 42t54.5 111h125q-4 -117 -90 -188.5t-220 -71.5 q-131 0 -217 71.5t-90 188.5z" />
<glyph unicode="&#x16d;" horiz-adv-x="1142" d="M174 489v535h121v-530q0 -240 44 -322t191 -82q68 0 144 21.5t117 44.5l40 20v848h121v-1024h-121v72q-160 -92 -315 -92q-209 0 -275.5 106t-66.5 403zM258 1493h125q4 -76 53 -123t133 -47q88 0 136.5 46t50.5 124h125q-4 -125 -87 -203t-225 -78q-139 0 -223 78 t-88 203z" />
<glyph unicode="&#x16e;" horiz-adv-x="1316" d="M168 418v1009h127v-1009q0 -315 354 -316q180 0 274.5 73t94.5 243v1009h125v-1009q0 -231 -124 -333.5t-370 -102.5q-238 0 -359.5 103.5t-121.5 332.5zM432 1734.5q0 96.5 62.5 152t163 55.5t164 -55.5t63.5 -152t-63.5 -150.5t-164 -54t-163 54t-62.5 150.5z M537 1734.5q0 -53.5 31.5 -83t88.5 -29.5q59 0 91 29.5t32 83t-31.5 83t-91.5 29.5q-57 0 -88.5 -29.5t-31.5 -83z" />
<glyph unicode="&#x16f;" horiz-adv-x="1142" d="M174 489v535h121v-530q0 -240 44 -322t191 -82q68 0 144 21.5t117 44.5l40 20v848h121v-1024h-121v72q-160 -92 -315 -92q-209 0 -275.5 106t-66.5 403zM377 1325q0 86 59.5 145.5t147.5 59.5q86 0 145 -59.5t59 -145.5q0 -88 -59 -147.5t-145 -59.5q-88 0 -147.5 59.5 t-59.5 147.5zM473 1325q0 -47 33 -81t78 -34t77.5 34t32.5 81t-32.5 80t-77.5 33t-78 -33t-33 -80z" />
<glyph unicode="&#x170;" horiz-adv-x="1316" d="M168 418v1009h127v-1009q0 -315 354 -316q180 0 274.5 73t94.5 243v1009h125v-1009q0 -231 -124 -333.5t-370 -102.5q-238 0 -359.5 103.5t-121.5 332.5zM309 1618l330 235l86 -69l-334 -232zM715 1616l327 235l88 -67l-335 -234z" />
<glyph unicode="&#x171;" horiz-adv-x="1142" d="M174 489v535h121v-530q0 -240 44 -322t191 -82q68 0 144 21.5t117 44.5l40 20v848h121v-1024h-121v72q-160 -92 -315 -92q-209 0 -275.5 106t-66.5 403zM260 1276l309 258l84 -76l-315 -256zM647 1276l311 258l84 -76l-315 -256z" />
<glyph unicode="&#x172;" horiz-adv-x="1316" d="M168 418v1009h127v-1009q0 -315 354 -316q180 0 274.5 73t94.5 243v1009h125v-1009q0 -350 -305 -418q-23 -16 -86.5 -96t-63.5 -121q0 -39 23.5 -64.5t60.5 -25.5l105 12l12 -104q-84 -18 -150 -19q-78 0 -128 47t-50 127q0 94 133 228q-14 -2 -45 -2 q-238 0 -359.5 103.5t-121.5 332.5z" />
<glyph unicode="&#x173;" horiz-adv-x="1142" d="M174 489v535h121v-530q0 -240 44 -322t191 -82q68 0 144 21.5t117 44.5l40 20v848h121v-1024h-2l2 2l-110 12l-11 -10v68q-160 -92 -315 -92q-209 0 -275.5 106t-66.5 403zM674 -244q0 43 34.5 100.5t65.5 91.5t57 56v-4h119q-23 -16 -86 -96t-63 -121q0 -39 23.5 -64.5 t60.5 -25.5l104 12l12 -104q-84 -18 -149 -19q-78 0 -128 47t-50 127z" />
<glyph unicode="&#x174;" horiz-adv-x="1820" d="M82 1427h127l272 -1302h68l291 1288h141l299 -1288h66l266 1302h127l-299 -1427h-252l-279 1237l-268 -1237h-252zM582 1636l274 269h109l272 -269h-145l-181 170l-180 -170h-149z" />
<glyph unicode="&#x175;" horiz-adv-x="1552" d="M63 1024h125l228 -913h28l267 893h131l264 -893h31l227 913h125l-258 -1024h-215l-242 844l-242 -844h-213zM473 1219l254 290h98l254 -290h-139l-162 184l-166 -184h-139z" />
<glyph unicode="&#x176;" horiz-adv-x="1122" d="M43 1427h141l379 -673l373 673h141l-450 -815v-612h-127v612zM233 1636l275 269h108l273 -269h-146l-180 170l-180 -170h-150z" />
<glyph unicode="&#x177;" horiz-adv-x="985" d="M57 1024h125l273 -907h73l275 907h125l-443 -1485h-123l136 461h-140zM188 1219l254 290h99l254 -290h-140l-161 184l-166 -184h-140z" />
<glyph unicode="&#x178;" horiz-adv-x="1122" d="M43 1427h141l379 -673l373 673h141l-450 -815v-612h-127v612zM287 1694v161h121v-161h-121zM702 1694v161h119v-161h-119z" />
<glyph unicode="&#x179;" horiz-adv-x="1167" d="M123 -2v174l774 1092v45h-774v118h921v-174l-774 -1093v-41h774v-121h-921zM346 1716l426 195l47 -113l-430 -182z" />
<glyph unicode="&#x17a;" horiz-adv-x="983" d="M111 0v111l612 802h-612v111h759v-111l-610 -802h610v-111h-759zM250 1327l426 195l47 -113l-430 -182z" />
<glyph unicode="&#x17b;" horiz-adv-x="1167" d="M123 -2v174l774 1092v45h-774v118h921v-174l-774 -1093v-41h774v-121h-921zM522 1696v153h121v-153h-121z" />
<glyph unicode="&#x17c;" horiz-adv-x="983" d="M111 0v111l612 802h-612v111h759v-111l-610 -802h610v-111h-759zM430 1276v154h123v-154h-123z" />
<glyph unicode="&#x17d;" horiz-adv-x="1167" d="M123 -2v174l774 1092v45h-774v118h921v-174l-774 -1093v-41h774v-121h-921zM256 1911h147l181 -172l180 172h147l-272 -269h-109z" />
<glyph unicode="&#x17e;" horiz-adv-x="983" d="M111 0v111l612 802h-612v111h759v-111l-610 -802h610v-111h-759zM168 1509h137l166 -182l164 182h139l-254 -290h-100z" />
<glyph unicode="&#x192;" d="M143 -492l2 105l15 -2h36q22 0 46 -1l49 -2q25 -1 41 -1q168 0 168 258v868h-135v113h135v125q0 207 46 302t165 116q37 8 80 6l178 -9l-2 -106q-117 4 -181 4q-166 0 -165 -258v-180h311v-113h-311v-868q0 -201 -73 -284t-216 -83z" />
<glyph unicode="&#x1fa;" horiz-adv-x="1236" d="M63 0l396 1380q-68 55 -68 156q0 96 62.5 151.5t163 55.5t163 -55.5t62.5 -151.5q0 -94 -62 -150l394 -1384h-127l-119 387h-623l-115 -389h-127zM336 510h563l-227 801h-107zM377 1905l426 194l47 -112l-430 -181zM494 1536q0 -92 86 -109h73q86 16 86 109 q0 53 -32.5 83t-90 30t-90 -30t-32.5 -83z" />
<glyph unicode="&#x1fb;" horiz-adv-x="1064" d="M104 289q0 141 73 212.5t229 86.5l348 35v92q0 211 -197 211l-389 -31l-8 109q242 39 401.5 38.5t236 -80t76.5 -247.5v-535q8 -78 134 -92l-7 -106q-162 0 -231 77q-184 -80 -393 -79q-129 0 -201 79.5t-72 229.5zM231 291q0 -98 42 -150.5t118 -52.5q78 0 168 17.5 t141 33.5l54 19v362l-334 -31q-189 -16 -189 -198zM297 1692l426 194l47 -112l-430 -183zM309 1315q0 86 59.5 145.5t147.5 59.5q86 0 145.5 -59.5t59.5 -145.5q0 -88 -59.5 -147.5t-145.5 -59.5q-88 0 -147.5 59.5t-59.5 147.5zM406 1315q0 -47 32.5 -81t77.5 -34t78 34 t33 81t-33 79.5t-78 32.5t-77.5 -32.5t-32.5 -79.5z" />
<glyph unicode="&#x1fc;" horiz-adv-x="1716" d="M78 0l479 1427h1174v-118h-727v-516h604v-119h-604v-555h727v-119h-852v389h-535l-133 -389h-133zM381 510h498v799h-228zM666 1716l426 195l47 -113l-430 -182z" />
<glyph unicode="&#x1fd;" horiz-adv-x="1695" d="M111 289q0 164 82.5 224t289.5 83l277 27v92q0 211 -197 211q-68 0 -165 -5.5t-160 -11.5l-64 -4l-4 111q238 27 397 26q221 0 279 -165q100 166 334 165q203 0 303 -115.5t100 -367.5l-6 -98h-696q2 -188 66.5 -278.5t219.5 -90.5l373 19l4 -103q-229 -29 -389 -28 q-203 0 -299 114l-70 -31q-188 -84 -403 -83q-272 0 -272 309zM238 291q0 -98 42 -150.5t117 -52.5q182 0 406 86q-47 113 -47 346l-330 -31q-98 -10 -143 -56t-45 -142zM631 1327l426 195l47 -113l-430 -182zM881 563h577q0 199 -66.5 285t-211.5 86q-299 0 -299 -371z" />
<glyph unicode="&#x1fe;" horiz-adv-x="1343" d="M113 707q0 375 120.5 558t434.5 183q154 0 264 -47l108 231l115 -45l-119 -250q188 -162 189 -630q0 -385 -120 -556t-437 -171q-135 0 -250 36l-119 -254l-113 50l123 264q-109 82 -152.5 235.5t-43.5 395.5zM244 707q0 -385 123 -510l512 1089q-88 41 -211 41 q-248 0 -336 -149t-88 -471zM420 1716l426 195l47 -113l-430 -182zM471 131q80 -31 197 -31q254 0 340 138.5t86 468.5q0 369 -117 503z" />
<glyph unicode="&#x1ff;" horiz-adv-x="1079" d="M111 528q0 274 98 394t334 120q80 0 157 -20l88 217l89 -31l-93 -221q184 -106 185 -461q0 -291 -90.5 -418.5t-335.5 -127.5q-88 0 -164 16l-92 -227l-88 30l94 228q-100 53 -141 172.5t-41 328.5zM236 528q0 -166 21.5 -257t84.5 -134l315 778q-53 16 -114 17 q-176 0 -241.5 -87.5t-65.5 -316.5zM303 1327l426 195l47 -113l-430 -182zM420 102q51 -12 123 -12q186 0 242.5 98.5t56.5 337.5q0 262 -107 348z" />
<glyph unicode="&#x218;" horiz-adv-x="1093" d="M96 1077q0 375 459 375l412 -39l-11 -117q-283 35 -401 35q-330 0 -330 -250q0 -145 75 -197.5t286 -92.5q225 -45 318 -121t93 -256q0 -227 -113.5 -328.5t-334.5 -101.5l-436 39l12 116q276 -35 422 -35q164 0 242.5 71t78.5 233q0 127 -70.5 179t-258.5 87 q-121 23 -193 46t-134 67t-89 115t-27 175zM436 -569l82 409h123l-100 -409h-105z" />
<glyph unicode="&#x219;" horiz-adv-x="995" d="M117 754q0 154 103.5 221t256.5 67q70 0 161 -9t148 -17l56 -8l-4 -109q-221 33 -355 33q-242 0 -241 -174q0 -80 52 -114t214 -58q211 -35 290 -91.5t79 -197.5q0 -172 -100.5 -244.5t-295.5 -72.5l-352 36l8 109q229 -35 334 -35q143 0 212 43t69 158q0 88 -54.5 121.5 t-226.5 60.5q-199 31 -276.5 86.5t-77.5 194.5zM391 -569l82 409h123l-100 -409h-105z" />
<glyph unicode="&#x2c6;" horiz-adv-x="466" d="M-45 1219l254 290h98l254 -290h-139l-162 184l-166 -184h-139z" />
<glyph unicode="&#x2c7;" horiz-adv-x="466" d="M-41 1509h137l166 -182l164 182h139l-254 -290h-100z" />
<glyph unicode="&#x2d8;" horiz-adv-x="466" d="M-49 1493h125q2 -76 51 -123t135 -47t135 47t52 123h124q-4 -125 -87 -203t-224 -78t-224 78t-87 203z" />
<glyph unicode="&#x2d9;" horiz-adv-x="466" d="M172 1276v154h123v-154h-123z" />
<glyph unicode="&#x2da;" horiz-adv-x="466" d="M35 1325q0 86 59.5 145.5t147.5 59.5q86 0 145 -59.5t59 -145.5q0 -88 -59 -147.5t-145 -59.5q-88 0 -147.5 59.5t-59.5 147.5zM131 1325q0 -47 33 -81t78 -34t77.5 34t32.5 81t-32.5 80t-77.5 33t-78 -33t-33 -80z" />
<glyph unicode="&#x2db;" horiz-adv-x="909" d="M371 -244q0 102 157 250l11 8l110 -12q-152 -152 -151 -219q0 -39 23.5 -64.5t60.5 -25.5l104 12l12 -104q-84 -18 -149 -19q-78 0 -128 47t-50 127z" />
<glyph unicode="&#x2dc;" horiz-adv-x="466" d="M-72 1378q102 104 181 105q49 0 160.5 -51.5t140.5 -51.5q18 0 52 20.5t58 41.5l27 20l28 -96q-92 -98 -165 -98q-47 0 -160 52t-144 52q-20 0 -57 -22.5t-63 -44.5l-27 -23z" />
<glyph unicode="&#x2dd;" horiz-adv-x="466" d="M-104 1276l311 258l82 -76l-314 -256zM285 1276l309 258l84 -76l-313 -256z" />
<glyph unicode="&#x300;" horiz-adv-x="466" d="M33 1413l45 109l426 -195l-41 -96z" />
<glyph unicode="&#x301;" horiz-adv-x="466" d="M10 1327l426 195l47 -113l-430 -182z" />
<glyph unicode="&#x302;" horiz-adv-x="466" d="M-39 1219l254 290h98l254 -290h-139l-162 184l-166 -184h-139z" />
<glyph unicode="&#x303;" horiz-adv-x="466" d="M-72 1378q102 104 181 105q49 0 160.5 -51.5t140.5 -51.5q18 0 52 20.5t58 41.5l27 20l28 -96q-92 -98 -165 -98q-47 0 -160 52t-144 52q-20 0 -57 -22.5t-63 -44.5l-27 -23z" />
<glyph unicode="&#x304;" horiz-adv-x="466" d="M-43 1305v108h578v-108h-578z" />
<glyph unicode="&#x306;" horiz-adv-x="466" d="M-49 1493h125q2 -76 51 -123t135 -47t135 47t52 123h124q-4 -125 -87 -203t-224 -78t-224 78t-87 203z" />
<glyph unicode="&#x307;" horiz-adv-x="466" d="M172 1276v154h123v-154h-123z" />
<glyph unicode="&#x308;" horiz-adv-x="466" d="M-16 1290v162h120v-162h-120zM387 1290v162h119v-162h-119z" />
<glyph unicode="&#x30a;" horiz-adv-x="466" d="M37 1325q0 86 59.5 145.5t147.5 59.5q86 0 145.5 -59.5t59.5 -145.5q0 -88 -59.5 -147.5t-145.5 -59.5q-88 0 -147.5 59.5t-59.5 147.5zM133 1325q0 -47 33 -81t78 -34t77.5 34t32.5 81t-32.5 80t-77.5 33t-78 -33t-33 -80z" />
<glyph unicode="&#x30b;" horiz-adv-x="466" d="M-104 1276l311 258l82 -76l-314 -256zM285 1276l309 258l84 -76l-313 -256z" />
<glyph unicode="&#x30c;" horiz-adv-x="466" d="M-49 1509h137l166 -182l164 182h139l-254 -290h-100z" />
<glyph unicode="&#x312;" horiz-adv-x="348" d="M61 1208l99 412h106l-82 -412h-123z" />
<glyph unicode="&#x315;" horiz-adv-x="296" d="M86 963v464h119v-464h-119z" />
<glyph unicode="&#x326;" horiz-adv-x="348" d="M61 -569l82 409h123l-100 -409h-105z" />
<glyph unicode="&#x327;" horiz-adv-x="1032" d="M449 -420l4 82q84 -6 145 -6q92 0 92 84q0 76 -92 76h-96v186h78v-108q119 0 171 -32t52 -122q0 -172 -182 -172z" />
<glyph unicode="&#x328;" horiz-adv-x="909" d="M371 -244q0 102 157 250l11 8l110 -12q-152 -152 -151 -219q0 -39 23.5 -64.5t60.5 -25.5l104 12l12 -104q-84 -18 -149 -19q-78 0 -128 47t-50 127z" />
<glyph unicode="&#x394;" d="M88 0v98l342 1268h232l344 -1270v-96h-918zM219 115h653l-303 1136h-47z" />
<glyph unicode="&#x2206;" d="M88 0v98l342 1268h232l344 -1270v-96h-918zM219 115h653l-303 1136h-47z" />
<glyph unicode="&#x3a9;" d="M59 -18v106h267q-25 39 -63 105.5t-100.5 243.5t-62.5 321q0 324 94.5 469t348.5 145t347 -145.5t93 -468.5q0 -143 -56.5 -310t-111.5 -264l-57 -96h268v-106h-397v86q10 16 24.5 42.5t54.5 107.5t69.5 158t54 176t24.5 179q0 281 -61.5 399.5t-251.5 118.5 q-82 0 -139.5 -22.5t-91 -60.5t-52 -106.5t-25 -142t-6.5 -186.5q0 -127 56.5 -293t111.5 -268l58 -102v-86h-396z" />
<glyph unicode="&#x2126;" d="M59 -18v106h267q-25 39 -63 105.5t-100.5 243.5t-62.5 321q0 324 94.5 469t348.5 145t347 -145.5t93 -468.5q0 -143 -56.5 -310t-111.5 -264l-57 -96h268v-106h-397v86q10 16 24.5 42.5t54.5 107.5t69.5 158t54 176t24.5 179q0 281 -61.5 399.5t-251.5 118.5 q-82 0 -139.5 -22.5t-91 -60.5t-52 -106.5t-25 -142t-6.5 -186.5q0 -127 56.5 -293t111.5 -268l58 -102v-86h-396z" />
<glyph unicode="&#x3c0;" d="M8 883v114q51 10 128 16.5t128 8.5l51 2h443q195 0 295 33v-115q-66 -25 -199 -31v-596q0 -129 38 -169t150 -40v-112q-186 0 -248.5 65.5t-62.5 255.5v594h-356l-58 -909h-122l57 909q-74 -2 -134.5 -8t-84.5 -12z" />
<glyph unicode="&#x1e80;" horiz-adv-x="1820" d="M82 1427h127l272 -1302h68l291 1288h141l299 -1288h66l266 1302h127l-299 -1427h-252l-279 1237l-268 -1237h-252zM670 1792l47 113l426 -195l-43 -98z" />
<glyph unicode="&#x1e81;" horiz-adv-x="1552" d="M63 1024h125l228 -913h28l267 893h131l264 -893h31l227 913h125l-258 -1024h-215l-242 844l-242 -844h-213zM541 1413l45 109l426 -195l-41 -96z" />
<glyph unicode="&#x1e82;" horiz-adv-x="1820" d="M82 1427h127l272 -1302h68l291 1288h141l299 -1288h66l266 1302h127l-299 -1427h-252l-279 1237l-268 -1237h-252zM690 1716l426 195l47 -113l-430 -182z" />
<glyph unicode="&#x1e83;" horiz-adv-x="1552" d="M63 1024h125l228 -913h28l267 893h131l264 -893h31l227 913h125l-258 -1024h-215l-242 844l-242 -844h-213zM539 1327l426 195l47 -113l-430 -182z" />
<glyph unicode="&#x1e84;" horiz-adv-x="1820" d="M82 1427h127l272 -1302h68l291 1288h141l299 -1288h66l266 1302h127l-299 -1427h-252l-279 1237l-268 -1237h-252zM643 1694v161h119v-161h-119zM1057 1694v161h119v-161h-119z" />
<glyph unicode="&#x1e85;" horiz-adv-x="1552" d="M63 1024h125l228 -913h28l267 893h131l264 -893h31l227 913h125l-258 -1024h-215l-242 844l-242 -844h-213zM516 1290v162h119v-162h-119zM918 1290v162h118v-162h-118z" />
<glyph unicode="&#x1eab;" horiz-adv-x="1093" d="M104 289q0 141 73 212.5t229 86.5l348 35v92q0 211 -197 211l-389 -31l-8 109q242 39 401.5 38.5t236 -80t76.5 -247.5v-535q8 -78 134 -92l-7 -106q-162 0 -231 77q-184 -80 -393 -79q-129 0 -201 79.5t-72 229.5zM154 1614q102 104 180 104q49 0 160.5 -51t140.5 -51 q18 0 52 20.5t58 40.5l27 21l29 -96q-92 -98 -166 -99q-47 0 -160 52.5t-143 52.5q-20 0 -57 -22.5t-64 -45.5l-27 -22zM195 1157l254 291h98l254 -291h-139l-162 184l-166 -184h-139zM231 291q0 -98 42 -150.5t118 -52.5q78 0 168 17.5t141 33.5l54 19v362l-334 -31 q-189 -16 -189 -198z" />
<glyph unicode="&#x1eb0;" horiz-adv-x="1236" d="M63 0l410 1427h297l404 -1425h-127l-119 387h-623l-115 -389h-127zM266 2105l45 109l426 -195l-41 -96zM307 1827h125q2 -70 54.5 -112t127.5 -42q78 0 129.5 42t53.5 112h125q-2 -117 -88 -188.5t-219.5 -71.5t-218.5 71.5t-89 188.5zM336 510h563l-227 801h-107z" />
<glyph unicode="&#x1ec5;" horiz-adv-x="1038" d="M111 508q0 535 421 534q203 0 303.5 -115.5t100.5 -367.5l-4 -98h-696q0 -188 64.5 -278.5t219.5 -90.5q66 0 160 5t156 9l59 5l4 -103q-231 -29 -391 -28q-221 2 -309 131t-88 397zM190 1614q102 104 181 104q49 0 160.5 -51t140.5 -51q18 0 52 20.5t58 40.5l27 21 l29 -96q-92 -98 -166 -99q-47 0 -160 52.5t-143 52.5q-20 0 -57.5 -22.5t-63.5 -45.5l-27 -22zM221 1157l254 291h98l254 -291h-139l-162 184l-166 -184h-139zM236 563h577q0 201 -66.5 286t-214.5 85q-296 0 -296 -371z" />
<glyph unicode="&#x1ed7;" horiz-adv-x="1093" d="M111 528q0 274 98 394t334 120q223 0 324.5 -123.5t101.5 -392.5q0 -291 -90.5 -418.5t-335.5 -127.5q-250 0 -341 123.5t-91 424.5zM174 1614q102 104 180 104q49 0 161 -51t140 -51q18 0 52 20.5t59 40.5l27 21l28 -96q-92 -98 -166 -99q-47 0 -159.5 52.5t-143.5 52.5 q-20 0 -57 -22.5t-64 -45.5l-26 -22zM221 1157l254 291h98l254 -291h-139l-162 184l-166 -184h-139zM236 528q0 -248 59 -343t248 -95q186 0 242.5 98.5t56.5 337.5q0 217 -71 311.5t-228 94.5q-176 0 -241.5 -87.5t-65.5 -316.5z" />
<glyph unicode="&#x1ef2;" horiz-adv-x="1122" d="M43 1427h141l379 -673l373 673h141l-450 -815v-612h-127v612zM336 1792l47 113l426 -195l-43 -98z" />
<glyph unicode="&#x1ef3;" horiz-adv-x="985" d="M57 1024h125l273 -907h73l275 907h125l-443 -1485h-123l136 461h-140zM256 1413l45 109l426 -195l-41 -96z" />
<glyph unicode="&#x1ef8;" horiz-adv-x="1122" d="M43 1427h141l379 -673l373 673h141l-450 -815v-612h-127v612zM225 1784q102 104 181 104q49 0 160.5 -51t140.5 -51q18 0 52 20.5t60 40.5l25 21l28 -96q-92 -98 -165 -99q-47 0 -160 52.5t-144 52.5q-20 0 -57 -22.5t-63 -45.5l-27 -22z" />
<glyph unicode="&#x1ef9;" horiz-adv-x="985" d="M57 1024h125l273 -907h73l275 907h125l-443 -1485h-123l136 461h-140zM156 1378q102 104 180 105q49 0 160.5 -51.5t140.5 -51.5q18 0 52 20.5t61 41.5l24 20l29 -96q-92 -98 -166 -98q-47 0 -159.5 52t-143.5 52q-20 0 -57 -22.5t-64 -44.5l-27 -23z" />
<glyph unicode="&#x2013;" horiz-adv-x="1024" d="M0 496v114h1024v-114h-1024z" />
<glyph unicode="&#x2014;" horiz-adv-x="2048" d="M0 496v114h2048v-114h-2048z" />
<glyph unicode="&#x2018;" horiz-adv-x="348" d="M45 1057l105 432h110l-86 -432h-129z" />
<glyph unicode="&#x2019;" horiz-adv-x="348" d="M86 1079l86 432h129l-104 -432h-111z" />
<glyph unicode="&#x201a;" horiz-adv-x="374" d="M68 -197l104 433h111l-86 -433h-129z" />
<glyph unicode="&#x201c;" horiz-adv-x="702" d="M156 1057l102 432h113l-33 -162l39 162h112l-86 -432h-247z" />
<glyph unicode="&#x201d;" horiz-adv-x="718" d="M129 1053l86 432h129l-102 -432h-113zM440 1053l86 432h129l-102 -432h-113z" />
<glyph unicode="&#x201e;" horiz-adv-x="698" d="M68 -197l104 433h111l-86 -433h-129zM412 -197l104 433h111l-86 -433h-129z" />
<glyph unicode="&#x2020;" d="M125 899v121h356v397h121v-397h356v-121h-356v-1057h-121v1057h-356z" />
<glyph unicode="&#x2021;" d="M125 240v116h356v543h-356v121h356v397h121v-397h356v-121h-356v-543h356v-116h-356v-398h-121v398h-356z" />
<glyph unicode="&#x2022;" d="M289 219v590h508v-590h-508z" />
<glyph unicode="&#x2026;" horiz-adv-x="1523" d="M193 0v207h135v-207h-135zM713 0v207h135v-207h-135zM1233 0v207h135v-207h-135z" />
<glyph unicode="&#x2030;" horiz-adv-x="1705" d="M45 1157q0 279 221 279q219 0 219 -281q0 -143 -58 -215t-161 -72q-104 0 -162.5 72t-58.5 217zM150 1157q0 -199 116 -199q61 0 88 49.5t27 147.5q0 100 -25.5 145.5t-89 45.5t-90 -45.5t-26.5 -143.5zM322 10l380 1436l95 -25l-381 -1431zM625 289q0 279 219 278.5 t219 -280.5q0 -143 -58.5 -215t-161 -72t-160.5 72t-58 217zM727 289q0 -199 117 -199q63 0 88.5 48t25.5 149q0 98 -25.5 144t-88.5 46q-117 0 -117 -188zM1151 289q0 279 221 278q219 0 219 -280q0 -143 -58 -215t-161 -72q-104 0 -162.5 72t-58.5 217zM1255 289 q0 -100 27 -149.5t90.5 -49.5t89 48t25.5 149q0 98 -25.5 144t-89 46t-90.5 -46t-27 -142z" />
<glyph unicode="&#x2039;" horiz-adv-x="589" d="M82 459v104l371 283v-129l-265 -203l265 -223v-131z" />
<glyph unicode="&#x203a;" horiz-adv-x="589" d="M137 164v133l264 223l-264 201v129l371 -283v-104z" />
<glyph unicode="&#x2070;" horiz-adv-x="542" d="M37 1300q0 182 60.5 259t176.5 77q119 0 179.5 -77.5t60.5 -260.5q0 -184 -61.5 -262t-176.5 -78q-117 0 -178 78t-61 264zM150 1298q0 -133 30.5 -185t95.5 -52q63 0 94 53t31 186q0 127 -29.5 181.5t-97.5 54.5q-66 0 -95 -54.5t-29 -183.5z" />
<glyph unicode="&#x2074;" horiz-adv-x="542" d="M33 1083v95l155 440h119l-160 -432h177l8 178h102v-178h62v-103h-62v-104h-110v104h-291z" />
<glyph unicode="&#x2075;" horiz-adv-x="542" d="M68 987l8 96q111 -23 194 -22q49 0 79 30.5t30 88.5q0 106 -94 106l-121 -37l-88 11l20 358h373v-100h-279l-12 -170q47 37 123 36q195 0 195 -202q0 -106 -59.5 -163.5t-155.5 -57.5z" />
<glyph unicode="&#x2076;" horiz-adv-x="542" d="M45 1294q0 180 61.5 261t190.5 81l176 -18l-6 -94q-94 14 -168 14q-70 0 -103.5 -41t-33.5 -133l18 8l53 16q33 9 60 9q209 0 209 -209q0 -106 -59.5 -168t-161.5 -62q-236 0 -236 336zM160 1262q4 -203 119 -203q111 0 110 127q0 63 -24.5 88.5t-83.5 25.5 q-27 0 -57.5 -9t-47 -18t-16.5 -11z" />
<glyph unicode="&#x2077;" horiz-adv-x="542" d="M57 1511v107h414v-145l-221 -512l-117 22l215 483v45h-291z" />
<glyph unicode="&#x2078;" horiz-adv-x="542" d="M31 1149q0 121 110 166q-100 37 -100 151q0 170 229.5 170t229.5 -172q0 -121 -99 -151q109 -33 109 -156q0 -109 -61.5 -154t-178.5 -45q-239 1 -239 191zM145 1151q0 -96 125 -96t125 102q0 47 -21.5 69.5t-72.5 37.5h-61q-49 -14 -72 -39t-23 -74zM154 1458 q0 -41 19.5 -62.5t66.5 -37.5h61q49 16 67.5 36.5t18.5 61.5q0 86 -116.5 86t-116.5 -84z" />
<glyph unicode="&#x2079;" horiz-adv-x="542" d="M39 1417q0 102 62.5 160.5t162.5 58.5q236 0 236 -342q0 -182 -60.5 -259t-191.5 -77l-180 23l6 92q90 -12 166 -12q143 0 147 170q-76 -29 -139 -29q-98 0 -153.5 57.5t-55.5 157.5zM154 1417q0 -53 27.5 -87t78.5 -34q25 0 56.5 9.5t52.5 17.5l20 8q-6 207 -123 207 q-112 0 -112 -121z" />
<glyph unicode="&#x2080;" horiz-adv-x="542" d="M37 322q0 182 60.5 258.5t176.5 76.5q119 0 179.5 -77.5t60.5 -260.5q0 -184 -61.5 -261.5t-176.5 -77.5q-117 0 -178 78t-61 264zM150 319q0 -133 30.5 -185t95.5 -52q63 0 94 53t31 187q0 127 -29.5 181t-97.5 54q-66 0 -95 -54.5t-29 -183.5z" />
<glyph unicode="&#x2081;" horiz-adv-x="542" d="M68 498l206 141h105v-639h-111v518l-149 -102z" />
<glyph unicode="&#x2082;" horiz-adv-x="542" d="M49 0v98l189 191q55 55 80.5 94t25.5 86q0 84 -106 84l-177 -21l-6 101q117 25 203 24q199 0 199 -180q0 -68 -31 -121t-98 -116l-135 -140h274v-100h-418z" />
<glyph unicode="&#x2083;" horiz-adv-x="542" d="M55 2l6 96q115 -16 209 -16q111 0 111 96q0 100 -105 101h-133v96h131q33 0 62 30.5t29 73.5q0 78 -105 78l-190 -16l-7 96q115 20 205 20q209 0 209 -168q0 -102 -88 -155q55 -18 81 -49t26 -109q0 -197 -215 -196z" />
<glyph unicode="&#x2084;" horiz-adv-x="542" d="M33 104v95l155 440h119l-160 -432h177l8 178h102v-178h62v-103h-62v-104h-110v104h-291z" />
<glyph unicode="&#x2085;" horiz-adv-x="542" d="M68 8l8 96q111 -23 194 -22q49 0 79 30.5t30 88.5q0 106 -94 106l-121 -37l-88 11l20 358h373v-100h-279l-12 -170q47 37 123 37q195 0 195 -203q0 -106 -59.5 -163.5t-155.5 -57.5z" />
<glyph unicode="&#x2086;" horiz-adv-x="542" d="M45 315q0 180 61.5 261t190.5 81l176 -18l-6 -94q-94 14 -168 14q-70 0 -103.5 -41t-33.5 -133l18 8l53 16q33 9 60 9q209 0 209 -209q0 -106 -59.5 -167.5t-161.5 -61.5q-236 -1 -236 335zM160 283q4 -203 119 -203q111 0 110 127q0 63 -24.5 89t-83.5 26 q-27 0 -57.5 -9.5t-47 -18.5t-16.5 -11z" />
<glyph unicode="&#x2087;" horiz-adv-x="542" d="M57 532v107h414v-145l-221 -512l-117 22l215 483v45h-291z" />
<glyph unicode="&#x2088;" horiz-adv-x="542" d="M31 170q0 121 110 166q-100 37 -100 151q0 170 229.5 170t229.5 -172q0 -121 -99 -151q109 -33 109 -156q0 -109 -61.5 -153.5t-178.5 -44.5q-239 0 -239 190zM145 172q0 -96 125 -96t125 102q0 47 -21.5 69.5t-72.5 37.5h-61q-49 -14 -72 -39t-23 -74zM154 479 q0 -41 19.5 -62.5t66.5 -37.5h61q49 16 67.5 36.5t18.5 61.5q0 86 -116.5 86t-116.5 -84z" />
<glyph unicode="&#x2089;" horiz-adv-x="542" d="M39 438q0 102 62.5 160.5t162.5 58.5q236 0 236 -342q0 -182 -60.5 -258.5t-191.5 -76.5l-180 22l6 92q90 -12 166 -12q143 0 147 170q-76 -29 -139 -29q-98 0 -153.5 57.5t-55.5 157.5zM154 438q0 -53 27.5 -87t78.5 -34q25 0 56.5 9.5t52.5 17.5l20 8q-6 207 -123 207 q-112 0 -112 -121z" />
<glyph unicode="&#x20ac;" horiz-adv-x="1118" d="M43 473v107h121v206h-121v107h129q23 254 133.5 372.5t368.5 118.5l360 -38l-6 -117q-193 33 -344 33q-199 0 -280.5 -88.5t-100.5 -282.5h586v-105h-594v-206l594 -2v-105h-586q18 -197 100 -284t283 -87l342 33l6 -117q-199 -39 -360 -38q-260 0 -370.5 117.5 t-131.5 375.5h-129z" />
<glyph unicode="&#x2122;" d="M14 1196v88h410v-88h-150v-516h-94v516h-166zM489 678v606h132l149 -453l156 453h129v-606h-90v485l-154 -458h-82l-147 458v-485h-93z" />
<glyph unicode="&#x2211;" horiz-adv-x="1705" />
<glyph unicode="&#x2212;" d="M57 565v115h965v-115h-965z" />
<glyph unicode="&#x221e;" horiz-adv-x="1087" d="M41 598q0 168 61.5 259t184.5 91q96 0 152.5 -53t103.5 -166q47 113 104.5 166t153.5 53q123 0 184.5 -91t61.5 -259q0 -350 -250 -350q-94 0 -150.5 52t-101.5 163q-47 -125 -99.5 -170t-154.5 -45q-250 0 -250 350zM162 598q0 -233 131 -233q35 0 61.5 10t49 42 t32.5 48t31.5 68.5t28.5 64.5l-24 55l-25 58q-7 16 -25.5 44.5t-33.5 41t-39.5 22.5t-55.5 10q-131 0 -131 -231zM592 598l28 -64q22 -50 32 -69t31.5 -48.5t48 -40.5t63.5 -11q131 0 131 233q0 231 -131 231q-37 0 -63.5 -10t-49.5 -42l-32 -45q-9 -13 -32 -68z" />
<glyph unicode="&#x2248;" d="M131 408q12 12 34.5 30.5t81 48t107.5 29.5q66 0 203 -52t180 -52q78 0 197 100l14 -121q-12 -12 -32.5 -29.5t-77 -47t-103.5 -29.5q-63 0 -202.5 53t-182.5 53q-80 0 -203 -102zM133 782q12 12 34.5 30.5t81 48.5t107.5 30q66 0 203 -52.5t180 -52.5q78 0 197 101 l14 -121q-12 -12 -32.5 -29.5t-77 -47.5t-103.5 -30q-63 0 -202.5 53.5t-182.5 53.5q-80 0 -202 -102z" />
<glyph unicode="&#x2260;" d="M104 692v115h506l144 326l108 -43l-125 -283h262v-115h-311l-123 -280h436v-115h-487l-141 -326l-111 43l125 283h-281v115h330l123 280h-455z" />
<glyph unicode="&#x2264;" d="M172 100v123h705v-123h-705zM172 662v147l705 311v-131l-588 -250l588 -268v-135z" />
<glyph unicode="&#x2265;" d="M207 100v123h711v-123h-711zM207 336v135l594 268l-594 250v131l711 -311v-147z" />
<glyph unicode="&#xe000;" horiz-adv-x="1025" d="M0 1025h1025v-1025h-1025v1025z" />
<glyph horiz-adv-x="481" />
<glyph horiz-adv-x="1101" d="M207 0v1495h72v-534q170 82 352 81q203 0 275.5 -115.5t72.5 -391.5q0 -301 -96.5 -427t-370.5 -126zM279 59q160 -12 231 -12q127 0 206 27.5t120 93t54 147.5t13 215q0 244 -54 345.5t-218 101.5q-82 0 -170 -20.5t-135 -41.5l-47 -20v-836z" />
<glyph horiz-adv-x="1284" d="M211 0v1434h491q209 0 311.5 -84t102.5 -265q0 -272 -198 -346q254 -70 253 -338q0 -221 -110.5 -311t-319.5 -90h-530zM285 70h456q170 0 262.5 74.5t92.5 256.5q0 297 -371 297h-440v-628zM285 766h440q164 0 239.5 80t75.5 239q0 147 -81.5 213t-256.5 66h-417v-598z " />
<glyph horiz-adv-x="983" d="M72 1024h75l299 -958h89l301 958h75l-321 -1024h-201z" />
<glyph horiz-adv-x="933" d="M78 0l346 512l-346 512h82l307 -457l307 457h82l-346 -512l346 -512h-84l-305 457l-305 -457h-84z" />
<glyph d="M94 690q0 369 130 525.5t374 156.5l328 -39l-8 -67q-147 37 -320 37q-209 0 -317.5 -135.5t-108.5 -446.5q0 4 57.5 31.5t155.5 57.5t178 30q428 0 428 -414q0 -444 -438 -444q-236 0 -347.5 178t-111.5 530zM170 649q4 -299 94 -448.5t289 -149.5q195 0 277.5 92.5 t82.5 282.5q0 166 -79.5 255t-274.5 89q-180 -6 -385 -119z" />
<glyph d="M96 928q0 211 113 327.5t334 116.5q231 0 339.5 -177t108.5 -531q0 -371 -123 -526.5t-364 -155.5q-76 0 -164 11t-139 21l-49 11l12 65q168 -39 340 -39q207 0 309 138.5t102 453.5q0 -4 -57 -31.5t-155.5 -57.5t-178.5 -30q-217 0 -322.5 109t-105.5 295zM174 928 q0 -152 86 -243t268 -91q180 6 385 119l5 2q-10 588 -375 588q-369 0 -369 -375z" />
<glyph horiz-adv-x="1337" d="M211 0v1434h586q121 0 209 -72t130 -186.5t60 -223t18 -215.5q0 -80 -7 -159.5t-32.5 -189t-67.5 -191.5t-123 -139.5t-187 -57.5h-586zM285 70h512q90 0 157.5 57t101.5 133t53 180.5t23.5 169t4.5 127.5q0 70 -14.5 161t-47.5 203.5t-105.5 187.5t-172.5 75h-512v-1294 z" />
<glyph d="M211 0v1434h74v-1364h698v-70h-772z" />
<glyph horiz-adv-x="0" />
<glyph d="M59 1165q0 143 52.5 208t164.5 65q111 0 164.5 -64.5t53.5 -210.5q0 -283 -218 -282q-111 0 -164 68.5t-53 215.5zM131 1165q0 -111 33 -165t112 -54q82 0 114 53.5t32 163.5q0 109 -32 159t-114 50q-80 0 -112.5 -50.5t-32.5 -156.5zM381 12l295 1424l74 -15l-295 -1423 zM635 285q0 143 52 207.5t165 64.5q111 0 164 -64.5t53 -209.5q0 -283 -217 -283q-111 0 -164 69t-53 216zM707 285q0 -111 32.5 -165t112.5 -54q82 0 113.5 53t31.5 164q0 109 -31.5 159t-113.5 50q-80 0 -112.5 -50.5t-32.5 -156.5z" />
<glyph d="M279 938l225 164l-223 164l41 55l225 -166l86 264l65 -20l-86 -266h277v-70h-281l86 -264l-65 -21l-86 266l-226 -161z" />
<glyph horiz-adv-x="532" d="M10 616.5q0 182.5 50.5 411.5t99.5 369l49 139h72q-23 -59 -54.5 -158.5t-86 -344.5t-54.5 -417q0 -342 178 -829l17 -43h-72q-23 51 -55.5 139t-88 319.5t-55.5 414z" />
<glyph horiz-adv-x="532" d="M-8 -246q23 59 54.5 158.5t85.5 344.5t54 417q0 342 -178 829l-16 43h71q23 -51 56 -139t88 -319.5t55 -413.5t-49 -411.5t-98 -368.5l-52 -140h-71z" />
<glyph horiz-adv-x="583" d="M0 602v66q117 29 165 86t48 159q0 27 -7 124.5t-7 138.5q0 184 83 269t277 93l4 -65q-168 -8 -230.5 -79t-62.5 -218q0 -35 7.5 -125t7.5 -119q0 -133 -45 -195.5t-160 -99.5q115 -37 160 -100.5t45 -190.5l-15 -237q0 -147 62.5 -218t230.5 -79l-4 -66q-195 8 -277.5 93 t-82.5 270q0 43 7 136t7 115q0 100 -48 154.5t-165 87.5z" />
<glyph horiz-adv-x="1933" d="M123 711q0 377 118.5 559t430.5 182q221 0 301 -18h837v-74h-763v-586h641v-74h-641v-626h763v-74h-833v-2q-72 -16 -305 -16q-164 0 -272.5 45t-169 142t-84 225.5t-23.5 316.5zM201 711q0 -174 18.5 -287t68.5 -202t144 -130t240 -41q217 0 301 19v1288q-80 25 -301 24 q-143 0 -237.5 -43t-144.5 -134t-69.5 -206.5t-19.5 -287.5zM973 1358l2 -680v680h-2z" />
<glyph horiz-adv-x="1705" d="M469 434v66h379v477h-379v65h379v392h72v-392h378v-65h-378v-477h378v-66h-378v-434h-72v434h-379z" />
<glyph horiz-adv-x="790" d="M10 1397q229 55 340 55q203 0 306.5 -74.5t103.5 -249.5q0 -92 -42 -173t-101.5 -139l-120 -111.5t-102.5 -114t-42 -123.5v-78h-71v84q0 70 42 136.5t102 121.5l120 113q59 57 101 131t42 153q0 141 -83 198.5t-255 57.5l-330 -57zM276 2v164h82v-164h-82z" />
<glyph horiz-adv-x="288" d="M51 0v164h82v-164h-82zM51 705v163h82v-163h-82z" />
<glyph horiz-adv-x="348" d="M-12 -252l84 430h86l-107 -430h-63zM66 705v163h81v-163h-81z" />
<glyph horiz-adv-x="614" d="M98 1534h375v-66h-301v-1654h301v-66h-373z" />
<glyph horiz-adv-x="614" d="M104 -186h302v1654h-302v66h375l-2 -1786h-373v66z" />
<glyph horiz-adv-x="204" d="M-41 1413h244l-10 -471h-230z" />
<glyph horiz-adv-x="727" d="M68 1413h243l-10 -471h-229zM391 1413h244l-10 -471h-230z" />
<glyph horiz-adv-x="1433" d="M78 426q0 182 77.5 271t256.5 141q-66 72 -85.5 133t-19.5 155q0 133 80 214t234 81q160 0 236.5 -79.5t76.5 -217.5q0 -147 -78 -230t-260 -142l383 -379q41 119 63 299h72q-29 -221 -80 -353l287 -280l-49 -53l-268 266q-135 -270 -455 -270q-258 0 -364.5 112.5 t-106.5 331.5zM150 428q0 -190 94 -284.5t309 -94.5q281 0 397 254l-485 481q-176 -47 -245.5 -122.5t-69.5 -233.5zM379 1126q0 -160 92 -252l74 -73q178 61 247.5 128.5t69.5 196.5q0 229 -241.5 229t-241.5 -229z" />
<glyph horiz-adv-x="1167" d="M233 0v70h189v696h-141v65h141v195q0 213 66.5 290t213.5 77l246 -25v-65q-178 25 -246 24q-111 0 -159.5 -62.5t-48.5 -238.5v-195h372v-65h-372v-696h356l168 32l14 -65l-166 -35z" />
<glyph horiz-adv-x="1214" d="M139 502v69h127q-2 33 -2 107q0 86 2 127h-127v69h131q20 262 131 387t373 125q195 0 359 -38l-7 -72q-186 41 -352 41q-227 0 -318 -106.5t-108 -336.5l637 -2v-67h-641q-2 -41 -2 -127q0 -74 2 -107l641 -2v-67h-639q16 -236 107.5 -343.5t320.5 -107.5l352 41l7 -69 q-197 -41 -359 -41q-262 0 -373.5 124.5t-130.5 395.5h-131z" />
<glyph horiz-adv-x="1705" d="M504 1407l71 29l617 -1407l-72 -29z" />
<glyph horiz-adv-x="1064" d="M55 -70h877v-69h-877v69z" />
<glyph horiz-adv-x="1259" d="M211 0v1434h522q217 0 320.5 -102.5t103.5 -330.5q0 -229 -96 -352t-328 -123h-448v-526h-74zM285 596h448q346 0 346 405q0 188 -85 275.5t-261 87.5h-448v-768z" />
<glyph d="M6 684v74h688v-74h-688zM309 285v164h82v-164h-82zM309 989v164h82v-164h-82z" />
<glyph horiz-adv-x="839" d="M-100 479v70h475v475h74v-475h479v-70h-479v-479h-74v479h-475z" />
<glyph horiz-adv-x="901" d="M123 541v69h655v-69h-655z" />
<glyph d="M129 602v74l711 469v-80l-645 -422l645 -444v-84q-641 436 -711 487z" />
<glyph d="M2 702v70h1034v-70h-1034zM4 356v70h1034v-70h-1034z" />
<glyph d="M129 115v84l645 444l-645 422v80l711 -469v-74z" />
<glyph d="M94 25l568 1413l67 -29l-567 -1411z" />
<glyph horiz-adv-x="1794" d="M123 535q0 283 95 395t325 112q299 0 377 -245q90 246 372 245q195 0 292 -116.5t97 -374.5v-68h-727q0 -221 70 -328.5t242 -107.5l372 19l4 -66q-229 -18 -378 -18q-268 2 -346 219q-37 -115 -125 -167t-250 -52q-250 0 -335 119t-85 434zM199 535q0 -143 11 -226.5 t48 -148t104.5 -89t180.5 -24.5q111 0 179.5 27.5t102 94.5t44 146.5t10.5 214.5q0 242 -81 344.5t-255 102.5q-199 0 -271.5 -93t-72.5 -349zM954 549h652q0 231 -75 329.5t-239 98.5q-338 0 -338 -428z" />
<glyph horiz-adv-x="1839" d="M72 0l514 1434h1130v-70h-764v-590h641v-69h-641v-635h764v-70h-837v440h-566l-159 -440h-82zM338 510h541v854h-236z" />
<glyph horiz-adv-x="1343" d="M94 711q0 377 119 559t430 182q168 0 287 -57l106 227l68 -29l-113 -237q111 -86 156 -244t45 -401q0 -391 -115.5 -560t-433.5 -169q-162 0 -274 47l-119 -256l-68 26l123 264q-117 78 -164 236t-47 412zM172 711q0 -229 36 -368.5t130 -211.5l559 1196q-98 55 -254 55 q-143 0 -237.5 -43t-144.5 -134t-69.5 -206.5t-19.5 -287.5zM399 94q96 -43 244 -43t241 38t143 125t68.5 201.5t18.5 295.5q0 430 -156 573z" />
<glyph horiz-adv-x="1695" d="M113 281q0 143 63.5 206.5t218.5 87.5l389 41v107q0 250 -227 250l-385 -19l-4 68q225 20 389 20q236 0 285 -196q100 197 352 196q195 0 292 -116.5t97 -374.5v-68h-727q0 -221 69.5 -328.5t241.5 -107.5l373 19l4 -66q-229 -18 -379 -18q-203 2 -293 118l-77 -32 q-190 -86 -422 -86q-260 0 -260 299zM188 281q0 -113 49.5 -173.5t137.5 -60.5q86 0 198.5 24.5t173 45t95.5 35.5q-61 121 -62 360v37l-377 -37q-113 -10 -164 -65t-51 -166zM856 549h651q0 231 -74.5 329.5t-238.5 98.5q-338 0 -338 -428z" />
<glyph d="M111 498q0 295 112.5 419.5t313.5 124.5q104 0 179 -25.5t134 -86t88 -169t29 -267.5q0 -281 -113 -396.5t-315 -115.5q-428 0 -428 516zM227 500q0 -231 81 -320.5t233 -89.5q156 0 231.5 87t75.5 319q0 174 -39 273t-102.5 132t-167.5 33q-152 0 -232 -92t-80 -342z " />
<glyph d="M201 795l374 229h107v-1024h-117v891l-315 -191z" />
<glyph d="M190 0v104l375 316q119 98 169 166.5t50 156.5q0 102 -59 145.5t-197 43.5q-47 0 -129 -9.5t-140 -18.5t-58 -11l-11 106q213 43 363 43q354 0 354 -290q0 -117 -53 -196t-166 -169l-342 -278h590v-109h-746z" />
<glyph d="M205 20l14 107q211 -33 377 -33q258 4 258 195q0 184 -252 196h-254v105h252q94 4 158.5 47t64.5 133t-58 127t-181 37q-72 0 -160 -8t-141 -17l-52 -8l-12 107q207 37 363 36q176 0 268 -60t92 -198q0 -29 -5 -55t-15.5 -46.5t-22.5 -39t-28 -32.5l-27 -23 q-12 -10 -29 -19l-24 -12q-8 -4 -21 -8l-10 -4q98 -31 155.5 -87.5t57.5 -174.5q0 -152 -99.5 -227.5t-277.5 -75.5q-76 0 -173 9t-157 19z" />
<glyph d="M115 197v94l336 733h122l-327 -717h448v285h119v-285h115v-110h-115v-248h-119v248h-579z" />
<glyph d="M201 25l14 108q240 -41 385 -41q248 0 248 240q0 205 -248 205q-57 0 -133 -19.5t-123 -38.5l-47 -20l-88 20l37 549h686v-117h-580l-28 -336q152 70 286 70q362 0 363 -309q0 -172 -98.5 -263t-272.5 -91q-72 0 -172 11t-164 21z" />
<glyph d="M164 520q0 522 422 522q66 0 142.5 -7t121.5 -15l45 -8l-10 -101q-168 25 -299 25q-147 0 -226 -84t-79 -287q0 2 49 21.5t124.5 40t131.5 20.5q367 0 366 -325q0 -166 -104.5 -254t-294.5 -88q-389 -1 -389 540zM281 463q6 -379 276 -379q276 0 277 238q0 113 -60.5 164 t-195.5 51q-57 0 -131 -18.5t-119 -37.5z" />
<glyph d="M135 920v106h690v-149l-446 -895l-103 30l435 869v39h-576z" />
<glyph d="M127 262q0 82 29.5 137.5t66.5 82t105 55.5q-182 70 -183 241q0 264 385 264q391 0 392 -266q0 -96 -49.5 -151.5t-145.5 -87.5q104 -37 158.5 -92.5t54.5 -170.5q0 -162 -105.5 -228t-304.5 -66q-403 -1 -403 282zM246 268q0 -104 72.5 -144t211.5 -40q145 0 218 41 t73 156q0 96 -49 136t-156 66h-182q-96 -25 -142 -72t-46 -143zM264 770q0 -80 40 -121t130 -67h182q98 25 143.5 66.5t45.5 121.5q0 90 -68.5 129t-206.5 39q-135 0 -200.5 -38t-65.5 -130z" />
<glyph d="M139 702q0 160 102.5 251t278.5 91q399 0 400 -530q0 -532 -424 -532l-316 34l8 101q168 -29 308 -29q147 0 224 87t77 288q-160 -76 -297 -76q-176 0 -268.5 81.5t-92.5 233.5zM256 705q0 -213 252 -213q135 6 289 75q-4 188 -71 279.5t-208 91.5q-262 0 -262 -233z" />
<glyph d="M496 -121v1555h71v-1555h-71z" />
<glyph horiz-adv-x="894" d="M25 506q0 399 356 434v270h72v-266l237 -22l-4 -72q-154 18 -233 20v-712l237 16l4 -72q-162 -18 -241 -18v-260h-72v260q-188 10 -272 100.5t-84 321.5zM106 506q0 -195 59.5 -266.5t215.5 -79.5v706q-137 -14 -206 -100t-69 -260z" />
<glyph d="M125 696v70h506l147 334l72 -29l-135 -305h280v-70h-311l-135 -309h448v-70h-479l-147 -337l-72 28l135 309h-307v70h338l135 309h-475z" />
<glyph horiz-adv-x="1105" d="M51 1352h84l420 -633l414 633h86l-391 -604h344v-70h-390l-26 -41v-195h418v-69h-418v-373h-74v373h-420v69h420v195l-26 41h-396v70h350z" />
<glyph d="M184 -512v1536h72v-528q0 -270 49 -359.5t215 -89.5q172 0 332 100l4 3v874h72v-1024h-72v82l-49 -28q-31 -17 -120 -44.5t-167 -27.5q-193 0 -264 104v-598h-72z" />
<glyph d="M143 -496l4 68q127 -6 185 -6q94 0 141 68.5t47 230.5v856h-141v65h141v228q0 365 260 364l191 -6l-4 -65q-125 4 -187 4q-188 0 -188 -299v-226h332v-65h-332v-856q0 -199 -64.5 -283t-195.5 -84z" />
<glyph horiz-adv-x="348" d="M-12 -252l86 430h82l-105 -430h-63z" />
<glyph horiz-adv-x="507" d="M201 0v164h82v-164h-82z" />
<glyph horiz-adv-x="348" d="M8 1079l82 410h78l-98 -410h-62z" />
<glyph horiz-adv-x="1705" d="M240 1073q0 158 109.5 259.5t271.5 101.5h712v-68h-198v-1366h-74v1366h-352v-1366h-74v717h-14q-162 0 -271.5 99t-109.5 257z" />
<glyph horiz-adv-x="583" d="M-2 -197q168 8 230.5 79t62.5 218q0 35 -7.5 125t-7.5 119q0 133 45.5 195.5t159.5 99.5q-115 37 -160 100.5t-45 190.5l15 237q0 147 -62.5 218t-230.5 79l4 66q195 -8 277.5 -93t82.5 -270q0 -43 -7 -136t-7 -116q0 -100 48 -154t165 -87v-66q-117 -29 -165 -86 t-48 -160q0 -27 7 -124t7 -138q0 -184 -82.5 -269t-277.5 -93z" />
<glyph horiz-adv-x="348" d="M-45 1079l98 410h62l-82 -410h-78z" />
<glyph horiz-adv-x="0" d="M178 344q0 55 10.5 101.5t22.5 75t40 60t43 46t54 44t53 42.5l-41 32q-31 25 -39 33l-33 30q-24 22 -31 34t-22.5 35.5t-19.5 45.5l-9 50q-5 29 -5 63q0 340 481 340q489 0 489 -342q0 -39 -3 -69.5t-17 -59t-20.5 -43t-33.5 -42.5l-34 -34q-6 -6 -46 -37.5t-46 -35.5 q14 -12 62 -48t64.5 -53.5t45 -55.5t39 -83t10.5 -106q0 -215 -133 -303.5t-377 -88.5q-504 0 -504 369zM481 418q0 -152 201 -152q207 0 207 152q0 102 -113 155h-180q-66 -31 -90.5 -67.5t-24.5 -87.5zM504 963q0 -14 1 -24.5t6 -21t8 -15.5t13.5 -14t15.5 -12.5 t22.5 -14.5t25.5 -17h180q8 6 22.5 15t19.5 13.5t15.5 11.5t13.5 12t9 12t7 14.5t3 17.5t2 23q0 66 -38.5 94t-143 28t-143.5 -29.5t-39 -92.5z" />
<glyph horiz-adv-x="733" d="M43 774v248h121v266l274 21v-287h252v-248h-252v-387q0 -61 3 -87t22.5 -44t60.5 -18l156 4l12 -236q-137 -31 -209 -31q-184 0 -251.5 83t-67.5 307v409h-121z" />
<glyph horiz-adv-x="901" d="M123 461v229h655v-229h-655z" />
<glyph horiz-adv-x="507" d="M92 0v291h270v-291h-270z" />
<glyph d="M2 217v270h1036v-270h-1036zM2 641v270h1034v-270h-1034z" />
<glyph horiz-adv-x="1064" d="M55 31h877v-271h-877v271z" />
<glyph horiz-adv-x="694" d="M49 545v188q213 53 213 185q0 27 -7 124t-7 138q0 186 89 268t312 90v-229q-94 -8 -119.5 -38t-25.5 -112q0 -35 7 -114.5t7 -108.5q0 -135 -45 -195.5t-160 -99.5q117 -39 161 -98.5t44 -192.5q0 -29 -7 -105.5t-7 -111.5q0 -84 26.5 -116.5t118.5 -41.5v-229 q-223 8 -312 94t-89 273q0 43 7 136t7 116q0 121 -213 180z" />
<glyph horiz-adv-x="583" d="M-219 -33q94 8 119.5 38t25.5 112q0 35 -7 114.5t-7 108.5q0 135 45 195.5t160 99.5q-117 39 -161 98.5t-44 192.5q0 29 7 105.5t7 111.5q0 84 -26.5 116.5t-118.5 40.5v230q223 -8 312 -94t89 -273q0 -43 -7 -136t-7 -116q0 -121 213 -180v-188q-213 -53 -213 -185 q0 -27 7 -124t7 -138q0 -186 -89 -268t-312 -90v229z" />
<glyph horiz-adv-x="839" d="M-100 389v250h387v385h250v-385h391v-250h-391v-389h-250v389h-387z" />
<glyph horiz-adv-x="542" d="M37 117q0 182 60.5 259t176.5 77q119 0 179.5 -78t60.5 -260q0 -184 -61.5 -262t-176.5 -78q-117 0 -178 78t-61 264zM150 115q0 -133 30.5 -185.5t95.5 -52.5q63 0 94 53.5t31 186.5q0 127 -29.5 181t-97.5 54q-66 0 -95 -54t-29 -183z" />
<glyph horiz-adv-x="542" d="M68 293l206 141h105v-639h-111v518l-149 -102z" />
<glyph horiz-adv-x="542" d="M49 -106l189 190q55 55 80.5 94t25.5 86q0 84 -106 84l-177 -20l-6 100q117 25 203 25q199 0 199 -181q0 -68 -31 -121t-98 -116l-135 -139h274v-101h-418v99z" />
<glyph horiz-adv-x="542" d="M55 -203l6 97q115 -16 209 -17q111 0 111 96q0 100 -105 101h-133v96h131q33 0 62 30.5t29 73.5q0 78 -105 78l-190 -16l-7 96q115 20 205 21q209 0 209 -168q0 -102 -88 -156q55 -18 81 -49t26 -109q0 -197 -215 -196z" />
<glyph horiz-adv-x="542" d="M33 -6l155 440h119l-160 -432h177l8 178h102v-178h62v-102h-62v-105h-110v105h-291v94z" />
<glyph horiz-adv-x="542" d="M68 -197l8 97q111 -23 194 -23q49 0 79 31t30 88q0 106 -94 106l-121 -36l-88 10l20 358h373v-100h-279l-12 -170q47 37 123 37q195 0 195 -203q0 -106 -59.5 -163.5t-155.5 -57.5z" />
<glyph horiz-adv-x="542" d="M45 111q0 180 61.5 261t190.5 81l176 -19l-6 -94q-94 14 -168 14q-70 0 -103.5 -41t-33.5 -133l18 8l53 16q33 9 60 9q209 0 209 -209q0 -106 -59.5 -167.5t-161.5 -61.5q-236 0 -236 336zM160 78q4 -203 119 -203q111 0 110 127q0 63 -24.5 89t-83.5 26 q-27 0 -57.5 -9.5t-47 -18.5t-16.5 -11z" />
<glyph horiz-adv-x="542" d="M57 328v106h414v-145l-221 -512l-117 22l215 484v45h-291z" />
<glyph horiz-adv-x="542" d="M31 -35q0 121 110 166q-100 37 -100 152q0 170 229.5 170t229.5 -172q0 -121 -99 -152q109 -33 109 -156q0 -109 -61.5 -153.5t-178.5 -44.5q-239 0 -239 190zM145 -33q0 -96 125 -96t125 102q0 47 -21.5 70t-72.5 37h-61q-49 -14 -72 -39t-23 -74zM154 274 q0 -41 19.5 -62.5t66.5 -37.5h61q49 16 67.5 36.5t18.5 61.5q0 86 -116.5 86t-116.5 -84z" />
<glyph horiz-adv-x="542" d="M39 233q0 102 62.5 161t162.5 59q236 0 236 -342q0 -182 -60.5 -259t-191.5 -77l-180 22l6 92q90 -12 166 -12q143 0 147 170q-76 -29 -139 -29q-98 0 -153.5 57.5t-55.5 157.5zM154 233q0 -53 27.5 -86.5t78.5 -33.5q25 0 56.5 9t52.5 17l20 8q-6 207 -123 207 q-112 0 -112 -121z" />
<glyph horiz-adv-x="1523" d="M193 0v207h135v-207h-135zM713 0v207h135v-207h-135zM1233 0v207h135v-207h-135z" />
<glyph horiz-adv-x="790" d="M18 -86q0 96 41 177t99.5 136.5t116 104.5t98.5 104.5t41 110.5v78h129v-84q0 -72 -41 -136.5t-100 -115.5l-115 -104q-57 -52 -98.5 -119.5t-41.5 -143.5q0 -127 71 -178t226 -51q43 0 124 13t141 28l59 12l14 -121q-231 -55 -342 -55q-213 0 -317.5 79t-104.5 265z M410 815v207h135v-207h-135z" />
<glyph horiz-adv-x="790" d="M33 324q0 96 41 177t98 136t115.5 104.5t99.5 104.5t41 110v78h129v-84q0 -72 -41 -136t-98 -116l-116 -103q-58 -52 -99 -119.5t-41 -143.5q0 -127 70.5 -178.5t226.5 -51.5q43 0 124 13.5t140 27.5l59 13l15 -121q-231 -55 -342 -55q-213 0 -317.5 79t-104.5 265z M424 1225v207h135v-207h-135z" />
<glyph horiz-adv-x="790" d="M33 324q0 96 41 177t98 136t115.5 104.5t99.5 104.5t41 110v78h129v-84q0 -72 -41 -136t-98 -116l-116 -103q-58 -52 -99 -119.5t-41 -143.5q0 -127 70.5 -178.5t226.5 -51.5q43 0 124 13.5t140 27.5l59 13l15 -121q-231 -55 -342 -55q-213 0 -317.5 79t-104.5 265z M424 1225v207h135v-207h-135z" />
<glyph horiz-adv-x="1024" d="M0 557v115h1024v-115h-1024z" />
<glyph horiz-adv-x="2048" d="M0 557v115h2048v-115h-2048z" />
<glyph horiz-adv-x="507" d="M174 588v207h135v-207h-135z" />
<glyph d="M487 1122v207h136v-207h-136zM489 -102l5 970h122l5 -970h-132z" />
<glyph horiz-adv-x="532" d="M88 678q0 182 50 411.5t100 368.5l49 139h129q-23 -59 -54.5 -158.5t-86 -344t-54.5 -416.5q0 -342 178 -830l17 -43h-129q-23 51 -55.5 139.5t-88 320t-55.5 413.5z" />
<glyph horiz-adv-x="532" d="M84 -184q23 59 54.5 158.5t86 344t54.5 416.5q0 342 -179 830l-16 43h129q23 -51 55.5 -139.5t88 -319.5t55.5 -413.5t-50.5 -412t-99.5 -368.5l-49 -139h-129z" />
<glyph horiz-adv-x="614" d="M90 -190v1785h408v-116h-285v-1553h285v-116h-408z" />
<glyph horiz-adv-x="614" d="M90 -74h285v1553h-285v116h408v-1785h-408v116z" />
<glyph horiz-adv-x="610" d="M12 645v107q115 29 161 82t46 147q0 27 -7 124t-7 138q0 186 88 269t293 92l4 -117q-150 -8 -203 -65.5t-53 -184.5q0 -35 7 -127t7 -121q0 -129 -45 -190.5t-160 -98.5q113 -37 159 -100t46 -190q0 -12 -7 -103.5t-7 -136.5q0 -125 54 -184.5t202 -67.5l-4 -117 q-203 8 -292 92t-89 269q0 43 7 136t7 116q0 92 -46 145t-161 86z" />
<glyph horiz-adv-x="610" d="M4 -88q150 8 203 65.5t53 184.5q0 35 -7 127t-7 121q0 129 45 190.5t160 97.5q-113 37 -159 100.5t-46 190.5q0 12 7 103.5t7 136.5q0 125 -54 184.5t-202 67.5l4 116q203 -8 292 -92t89 -268q0 -43 -7 -136t-7 -116q0 -92 46 -145.5t161 -85.5v-107q-115 -29 -161 -82 t-46 -147q0 -27 7 -124t7 -138q0 -186 -88 -269.5t-293 -91.5z" />
<glyph horiz-adv-x="466" d="M18 1792l48 113l426 -195l-43 -98z" />
<glyph horiz-adv-x="466" d="M47 1792l47 113l426 -195l-43 -98z" />
<glyph horiz-adv-x="466" d="M29 1716l426 195l47 -113l-430 -182z" />
<glyph horiz-adv-x="466" d="M31 1716l426 195l47 -113l-430 -182z" />
<glyph horiz-adv-x="933" d="M125 1645l274 268h109l272 -268h-145l-180 170l-181 -170h-149z" />
<glyph horiz-adv-x="466" d="M-57 1645l274 268h109l272 -268h-145l-181 170l-180 -170h-149z" />
<glyph horiz-adv-x="466" d="M-66 1911h148l180 -172l180 172h148l-273 -269h-108z" />
<glyph horiz-adv-x="466" d="M-68 1911h148l180 -172l180 172h148l-273 -269h-108z" />
<glyph horiz-adv-x="466" d="M-74 1786q115 119 193 119q53 0 178 -59.5t152 -59.5q41 0 151 98l33 -94q-106 -117 -182 -117q-49 0 -175 60.5t-157 60.5q-20 0 -61.5 -26.5t-71.5 -51.5l-31 -26z" />
<glyph horiz-adv-x="466" d="M-74 1786q115 119 193 119q53 0 178 -59.5t152 -59.5q41 0 151 98l33 -94q-106 -117 -182 -117q-49 0 -175 60.5t-157 60.5q-20 0 -61.5 -26.5t-71.5 -51.5l-31 -26z" />
<glyph horiz-adv-x="466" d="M-20 1694v161h120v-161h-120zM395 1694v161h119v-161h-119z" />
<glyph horiz-adv-x="466" d="M-20 1694v161h120v-161h-120zM395 1694v161h119v-161h-119z" />
<glyph horiz-adv-x="466" d="M-43 1683v109h618v-109h-618z" />
<glyph horiz-adv-x="466" d="M-43 1683v109h618v-109h-618z" />
<glyph horiz-adv-x="466" d="M-39 1894h125q2 -70 54.5 -111.5t127.5 -41.5q78 0 129.5 42t53.5 111h124q-2 -117 -88 -188.5t-219 -71.5t-218 71.5t-89 188.5z" />
<glyph horiz-adv-x="466" d="M-39 1894h125q2 -70 54.5 -111.5t127.5 -41.5q78 0 129.5 42t53.5 111h124q-2 -117 -88 -188.5t-219 -71.5t-218 71.5t-89 188.5z" />
<glyph horiz-adv-x="466" d="M35 1632q0 94 62.5 149.5t162.5 55.5t162.5 -55.5t62.5 -149.5q0 -96 -62.5 -151.5t-162.5 -55.5t-162.5 55.5t-62.5 151.5zM137 1632.5q0 -53.5 33 -83t90 -29.5t90 29.5t33 83t-33 82t-90 28.5t-90 -28.5t-33 -82z" />
<glyph horiz-adv-x="466" d="M25 1632q0 94 62.5 149.5t162.5 55.5t162.5 -55.5t62.5 -149.5q0 -96 -62.5 -151.5t-162.5 -55.5t-162.5 55.5t-62.5 151.5zM127 1632.5q0 -53.5 33 -83t90 -29.5t90 29.5t33 83t-33 82t-90 28.5t-90 -28.5t-33 -82z" />
<glyph horiz-adv-x="466" d="M-96 1618l327 235l86 -69l-331 -232zM307 1616l328 235l88 -67l-334 -234z" />
<glyph horiz-adv-x="466" d="M-96 1618l327 235l86 -69l-331 -232zM307 1616l328 235l88 -67l-334 -234z" />
<glyph horiz-adv-x="466" d="M172 1599v154h123v-154h-123z" />
<glyph horiz-adv-x="466" d="M172 1599v154h123v-154h-123z" />
<glyph horiz-adv-x="542" d="M37 1096q0 182 60.5 259t176.5 77q119 0 179.5 -78t60.5 -260q0 -184 -61.5 -262t-176.5 -78q-117 0 -178 78t-61 264zM150 1094q0 -133 30.5 -185.5t95.5 -52.5q63 0 94 53.5t31 186.5q0 127 -29.5 181t-97.5 54q-66 0 -95 -54t-29 -183z" />
<glyph horiz-adv-x="542" d="M61 1272l207 141h105v-639h-111v518l-149 -102z" />
<glyph horiz-adv-x="542" d="M49 774v98l189 191q55 55 80.5 94t25.5 86q0 84 -106 84l-177 -20l-6 100q117 25 203 25q199 0 199 -181q0 -68 -31 -121t-98 -116l-135 -140h274v-100h-418z" />
<glyph horiz-adv-x="542" d="M55 776l6 96q115 -16 209 -16q111 0 111 96q0 100 -105 101h-133v96h131q33 0 62 30.5t29 73.5q0 78 -105 78l-190 -16l-7 96q115 20 205 21q209 0 209 -168q0 -102 -88 -156q55 -18 81 -49t26 -109q0 -197 -215 -196z" />
<glyph horiz-adv-x="542" d="M33 879v94l155 440h119l-160 -432h177l8 178h102v-178h62v-102h-62v-105h-110v105h-291z" />
<glyph horiz-adv-x="542" d="M68 782l8 97q111 -23 194 -23q49 0 79 31t30 88q0 106 -94 106l-121 -37l-88 11l20 358h373v-100h-279l-12 -170q47 37 123 37q195 0 195 -203q0 -106 -59.5 -163.5t-155.5 -57.5z" />
<glyph horiz-adv-x="542" d="M45 1090q0 180 61.5 261t190.5 81l176 -19l-6 -94q-94 14 -168 14q-70 0 -103.5 -41t-33.5 -133l18 8l53 16q33 9 60 9q209 0 209 -209q0 -106 -59.5 -167.5t-161.5 -61.5q-236 0 -236 336zM160 1057q4 -203 119 -203q111 0 110 127q0 63 -24.5 89t-83.5 26 q-27 0 -57.5 -9.5t-47 -18.5t-16.5 -11z" />
<glyph horiz-adv-x="542" d="M57 1307v106h414v-145l-221 -512l-117 22l215 484v45h-291z" />
<glyph horiz-adv-x="542" d="M31 944q0 121 110 166q-100 37 -100 152q0 170 229.5 170t229.5 -172q0 -121 -99 -152q109 -33 109 -156q0 -109 -61.5 -153.5t-178.5 -44.5q-239 0 -239 190zM145 946q0 -96 125 -96t125 102q0 47 -21.5 69.5t-72.5 37.5h-61q-49 -14 -72 -39t-23 -74zM154 1253 q0 -41 19.5 -62.5t66.5 -37.5h61q49 16 67.5 36.5t18.5 61.5q0 86 -116.5 86t-116.5 -84z" />
<glyph horiz-adv-x="542" d="M39 1212q0 102 62.5 161t162.5 59q236 0 236 -342q0 -182 -60.5 -259t-191.5 -77l-180 22l6 92q90 -12 166 -12q143 0 147 170q-76 -29 -139 -29q-98 0 -153.5 57.5t-55.5 157.5zM154 1212q0 -53 27.5 -86.5t78.5 -33.5q25 0 56.5 9t52.5 17l20 8q-6 207 -123 207 q-112 0 -112 -121z" />
</font>
</defs>
</svg>
